Поиск

(Cuban, Salsa, World fusion) [CD] Sergio Rivero 'El Haitiano' - Ay Lola - 2006, FLAC (tracks+.cue), lossless

(Cuban, Salsa, World fusion) [CD] Sergio Rivero 'El Haitiano' - Ay Lola - 2006, FLAC (tracks+.cue), lossless
Треклист:
Sergio Rivero 'El Haitiano' / Ay Lola
Жанр: Cuban, Salsa, World fusion
Носитель: CD
Страна-производитель диска (релиза): Россия
Год издания: 2006
Издатель (лейбл): Termidor Musikverlag/Landy Star Music
Номер по каталогу: LSM 384632
Страна исполнителя (группы): Cuba
Аудиокодек: FLAC (*.flac)
Тип рипа: tracks+.cue
Битрейт аудио: lossless
Продолжительность: 00:31:34
Источник (релизер): свой рип
Наличие сканов в содержимом раздачи: нет
Треклист:
1. Pobre Lola
2. Son Pa'las Mujeres
3. Sin Ti No Se Hacer el Amor
4. Por Nuestra Cobardia
5. Se Sandunguera
6. Mirandote y Acariciandote
7. Merida La Blanca
8. A La Noche el Tun Tun
 
Лог создания рипа
Exact Audio Copy V1.0 beta 1 from 15. November 2010
EAC extraction logfile from 12. May 2015, 18:30
Sergio Rivero 'El Haitiano' / Ay Lola
Used drive : Optiarc DVD RW AD-5260S Adapter: 2 ID: 0
Read mode : Secure
Utilize accurate stream : Yes
Defeat audio cache : Yes
Make use of C2 pointers : No
Read offset correction : 48
Overread into Lead-In and Lead-Out : No
Fill up missing offset samples with silence : Yes
Delete leading and trailing silent blocks : No
Null samples used in CRC calculations : Yes
Used interface : Native Win32 interface for Win NT & 2000
Gap handling : Appended to previous track
Used output format : Internal WAV Routines
Sample format : 44.100 Hz; 16 Bit; Stereo
TOC of the extracted CD
Track | Start | Length | Start sector | End sector
---------------------------------------------------------
1 | 0:00.00 | 4:05.28 | 0 | 18402
2 | 4:05.28 | 4:15.34 | 18403 | 37561
3 | 8:20.62 | 4:46.68 | 37562 | 59079
4 | 13:07.55 | 4:54.48 | 59080 | 81177
5 | 18:02.28 | 3:34.56 | 81178 | 97283
6 | 21:37.09 | 2:55.19 | 97284 | 110427
7 | 24:32.28 | 3:28.21 | 110428 | 126048
8 | 28:00.49 | 3:33.26 | 126049 | 142049
Track 1
Filename D:\Temp\01. Pobre Lola.wav
Pre-gap length 0:00:02.00
Peak level 91.3 %
Extraction speed 2.2 X
Track quality 99.9 %
Test CRC AA7B8A39
Copy CRC AA7B8A39
Track not present in AccurateRip database
Copy OK
Track 2
Filename D:\Temp\02. Son Pa' Las Mujeres.wav
Pre-gap length 0:00:02.38
Peak level 91.3 %
Extraction speed 2.8 X
Track quality 100.0 %
Test CRC 308030C1
Copy CRC 308030C1
Track not present in AccurateRip database
Copy OK
Track 3
Filename D:\Temp\03. Sin Ti No Se Hacer El Amor.wav
Pre-gap length 0:00:02.07
Peak level 91.3 %
Extraction speed 2.7 X
Track quality 99.9 %
Test CRC DB6AC1AF
Copy CRC DB6AC1AF
Track not present in AccurateRip database
Copy OK
Track 4
Filename D:\Temp\04. Por Nuestra Cobardia.wav
Pre-gap length 0:00:02.04
Peak level 91.3 %
Extraction speed 3.3 X
Track quality 100.0 %
Test CRC 969C1CB0
Copy CRC 969C1CB0
Track not present in AccurateRip database
Copy OK
Track 5
Filename D:\Temp\05. Se Sandunguera.wav
Pre-gap length 0:00:02.07
Peak level 91.3 %
Extraction speed 3.3 X
Track quality 100.0 %
Test CRC B52C19E5
Copy CRC B52C19E5
Track not present in AccurateRip database
Copy OK
Track 6
Filename D:\Temp\06. Mirandote Y Acariciandote.wav
Pre-gap length 0:00:01.47
Peak level 91.3 %
Extraction speed 3.3 X
Track quality 100.0 %
Test CRC 8F0A3497
Copy CRC 8F0A3497
Track not present in AccurateRip database
Copy OK
Track 7
Filename D:\Temp\07. Merida La Blanca.wav
Pre-gap length 0:00:02.61
Peak level 91.3 %
Extraction speed 3.7 X
Track quality 100.0 %
Test CRC 587F90E2
Copy CRC 587F90E2
Track not present in AccurateRip database
Copy OK
Track 8
Filename D:\Temp\08. A La Noche El Tun Tun.wav
Pre-gap length 0:00:02.16
Peak level 91.3 %
Extraction speed 3.8 X
Track quality 100.0 %
Test CRC 101C0A5C
Copy CRC 101C0A5C
Track not present in AccurateRip database
Copy OK
None of the tracks are present in the AccurateRip database
No errors occurred
End of status report
==== Log checksum BC98EF2CC68FF64BFCEB380FB8117A3F91E9CB0CEAED0A0AEF00758B99208AE3 ====
 
Содержание индексной карты (.CUE)
REM GENRE Salsa
REM DATE 2006
REM DISCID 71076608
REM COMMENT "ExactAudioCopy v1.0b1"
PERFORMER "Sergio Rivero 'El Haitiano'"
TITLE "Ay Lola"
FILE "01. Pobre Lola.wav" WAVE
TRACK 01 AUDIO
TITLE "Pobre Lola"
PERFORMER "Sergio Rivero 'El Haitiano'"
ISRC DEE790211010
INDEX 01 00:00:00
TRACK 02 AUDIO
TITLE "Son Pa' Las Mujeres"
PERFORMER "Sergio Rivero 'El Haitiano'"
ISRC DEE790211020
INDEX 00 04:02:65
FILE "02. Son Pa' Las Mujeres.wav" WAVE
INDEX 01 00:00:00
TRACK 03 AUDIO
TITLE "Sin Ti No Se Hacer El Amor"
PERFORMER "Sergio Rivero 'El Haitiano'"
ISRC DEE790211030
INDEX 00 04:13:27
FILE "03. Sin Ti No Se Hacer El Amor.wav" WAVE
INDEX 01 00:00:00
TRACK 04 AUDIO
TITLE "Por Nuestra Cobardia"
PERFORMER "Sergio Rivero 'El Haitiano'"
ISRC DEE790211040
INDEX 00 04:44:64
FILE "04. Por Nuestra Cobardia.wav" WAVE
INDEX 01 00:00:00
TRACK 05 AUDIO
TITLE "Se Sandunguera"
PERFORMER "Sergio Rivero 'El Haitiano'"
ISRC DEE790211050
INDEX 00 04:52:41
FILE "05. Se Sandunguera.wav" WAVE
INDEX 01 00:00:00
TRACK 06 AUDIO
TITLE "Mirandote Y Acariciandote"
PERFORMER "Sergio Rivero 'El Haitiano'"
ISRC DEE790211060
INDEX 00 03:33:09
FILE "06. Mirandote Y Acariciandote.wav" WAVE
INDEX 01 00:00:00
TRACK 07 AUDIO
TITLE "Merida La Blanca"
PERFORMER "Sergio Rivero 'El Haitiano'"
ISRC DEE790211070
INDEX 00 02:52:33
FILE "07. Merida La Blanca.wav" WAVE
INDEX 01 00:00:00
TRACK 08 AUDIO
TITLE "A La Noche El Tun Tun"
PERFORMER "Sergio Rivero 'El Haitiano'"
ISRC DEE790211080
INDEX 00 03:26:05
FILE "08. A La Noche El Tun Tun.wav" WAVE
INDEX 01 00:00:00
 
Лог проверки качества
AUDIOCHECKER v2.0 beta (build 457) - by Dester - opdester@freemail.hu
~~~~~~~~~~~~~~~~~~~~~~~~~~~~~~~~~~
-=== DO NOT EDIT THIS FILE! ===-
Path: ...\Temp
1 -=- 01. Pobre Lola.wav -=- CDDA (100%)
2 -=- 02. Son Pa' Las Mujeres.wav -=- CDDA (100%)
3 -=- 03. Sin Ti No Se Hacer El Amor.wav -=- CDDA (100%)
4 -=- 04. Por Nuestra Cobardia.wav -=- CDDA (100%)
5 -=- 05. Se Sandunguera.wav -=- CDDA (100%)
6 -=- 06. Mirandote Y Acariciandote.wav -=- CDDA (100%)
7 -=- 07. Merida La Blanca.wav -=- CDDA (100%)
8 -=- 08. A La Noche El Tun Tun.wav -=- CDDA (100%)
Summary 100,00% CDDA
212578420
18:38
266
Нет комментариев. Ваш будет первым!