Поиск

(Cuban Mambo, Cuban Jazz, Latin) Cachao - Master Sessions Volume 1 - 1994, FLAC (image+.cue), lossless

Треклист:
Cachao - Master Sessions Volume 1
Жанр: Cuban Mambo, Cuban Jazz, Latin
Год выпуска диска: 1994
Производитель диска: Sony Music, US
Аудио кодек: FLAC
Тип рипа: image+.cue
Битрейт аудио: lossless
Продолжительность: 01:16:29
Трэклист:
01. Al Fin Te Vi (Finally I Saw You) [01:20]
02. Isora Club [06:37]
03. Mambo [03:14]
04. El Son No Ha Muerto (The Son Has Not Died) [07:05]
05. Lindo Yambu (Beautiful Yambu) [08:33]
06. Mi Guajira (My Country Girl) [09:25]
07. Lluvia, Viento Y Caсa (Rain, Wind and Reeds) [07:21]
08. Club Social do Marianao (Marianao Social Club) [07:30]
09. A Gozar Con Mi Combo (To Rejoice With My Combo) [06:20]
10. Cachao's Guiro [05:50]
11. El Alcalde (The Mayor) [06:52]
12. Descarga Cachao [06:23]
Доп. информация: Премия Гремми (Grammy) 1994 года за лучший альбом латиноамериканской музыки (Best Tropical Latin Performance).
 
EAC log
Exact Audio Copy V0.99 prebeta 4 from 23. January 2008
Отчёт EAC об извлечении, выполненном 20. марта 2009, 19:12
Cachao (Israel Lopez) / Master Session Volume I
Дисковод: HL-DT-STDVDRAM GSA-H10N Adapter: 1 ID: 0
Режим чтения : Достоверность
Использование точного потока : Да
Отключение кэша аудио : Да
Использование указателей C2 : Нет
Коррекция смещения при чтении : 667
Способность читать области Lead-in и Lead-out : Нет
Заполнение пропущенных сэмплов тишиной : Да
Удаление блоков с тишиной в начале и конце : Нет
При вычислениях CRC использовались нулевые сэмплы : Да
Интерфейс : Встроенный Win32-интерфейс для Win NT/2000
Выходной формат : Внутренние WAV-операции
Формат сэмплов : 44.100 Гц; 16 бит; стерео
TOC извлечённого CD
Трек | Старт | Длительность | Начальный сектор | Конечный сектор
---------------------------------------------------------------------
1 | 0:00.00 | 1:19.65 | 0 | 5989
2 | 1:19.65 | 6:36.52 | 5990 | 35741
3 | 7:56.42 | 3:13.53 | 35742 | 50269
4 | 11:10.20 | 7:04.52 | 50270 | 82121
5 | 18:14.72 | 8:32.73 | 82122 | 120594
6 | 26:47.70 | 9:25.00 | 120595 | 162969
7 | 36:12.70 | 7:21.42 | 162970 | 196086
8 | 43:34.37 | 7:29.65 | 196087 | 229826
9 | 51:04.27 | 6:19.53 | 229827 | 258304
10 | 57:24.05 | 5:49.65 | 258305 | 284544
11 | 63:13.70 | 6:51.65 | 284545 | 315434
12 | 70:05.60 | 6:23.15 | 315435 | 344174
Характеристики диапазона извлечения и сообщения об ошибках
Выбранный диапазон
Имя файла D:\TORR\Cachao.Master Sessions Volume 1\Cachao (Israel Lopez) - Master Session Volume I.wav
Пиковый уровень 97.7 %
Качество диапазона 100.0 %
CRC копии 89B83FD8
Копирование... OK
Ошибок не произошло
AccurateRip: сводка
Трек 1 точное извлечение (доверие 4) [BF83DB6F]
Трек 2 точное извлечение (доверие 4) [21EC2CCF]
Трек 3 точное извлечение (доверие 4) [F0C2CBF0]
Трек 4 точное извлечение (доверие 4) [6DEC2AE2]
Трек 5 точное извлечение (доверие 4) [8E1D4590]
Трек 6 точное извлечение (доверие 4) [A493BDA2]
Трек 7 точное извлечение (доверие 4) [05F118E3]
Трек 8 точное извлечение (доверие 4) [024E58D5]
Трек 9 точное извлечение (доверие 4) [787929A5]
Трек 10 точное извлечение (доверие 4) [BAC3B017]
Трек 11 точное извлечение (доверие 4) [6632B3F8]
Трек 12 точное извлечение (доверие 3) [410A8645]
Все треки извлечены точно
Конец отчёта
 
Tau
Download available for power users only.
05:25
347
Нет комментариев. Ваш будет первым!