Поиск

(Cuban Jazz/Latin Jazz/Folk) 5 Leyendas (5CD BOX) [Compay Segundo*Eliades Ochoa*Ibrahim Ferrer*Omara Portuondo*Ruben Gonzales] - 2005, APE (image+.cue), lossless

Треклист:
5 Leyendas (5CD BOX)
[Compay Segundo*Eliades Ochoa*Ibrahim Ferrer*Omara Portuondo*Ruben Gonzales] - 2005
Жанр: Cuba/Latin
Год выпуска диска: 2005
Производитель диска: Cuba
Аудио кодек: APE
Тип рипа: image+.cue
Битрейт аудио: lossless
Продолжительность: 4:29:28
Полиграфия: 600dpi
Доп. информация: Диски куплены моей подругой на Кубе
 
Compay Segundo
 
EAC Compay Segundo
Exact Audio Copy V0.99 prebeta 4 from 23. January 2008
Отчёт EAC об извлечении, выполненном 22. июня 2009, 16:23
Compay Segundo / 5 Leyendas - Compay Segundo
Дисковод: SONY CD-RW CRX320E Adapter: 0 ID: 2
Режим чтения : Достоверность
Использование точного потока : Да
Отключение кэша аудио : Да
Использование указателей C2 : Нет
Коррекция смещения при чтении : 6
Способность читать области Lead-in и Lead-out : Нет
Заполнение пропущенных сэмплов тишиной : Да
Удаление блоков с тишиной в начале и конце : Нет
При вычислениях CRC использовались нулевые сэмплы : Да
Интерфейс : Встроенный Win32-интерфейс для Win NT/2000
Выходной формат : Внутренние WAV-операции
Формат сэмплов : 44.100 Гц; 16 бит; стерео
TOC извлечённого CD
Трек | Старт | Длительность | Начальный сектор | Конечный сектор
---------------------------------------------------------------------
1 | 0:00.00 | 4:15.05 | 0 | 19129
2 | 4:15.05 | 3:37.40 | 19130 | 35444
3 | 7:52.45 | 3:05.50 | 35445 | 49369
4 | 10:58.20 | 2:43.57 | 49370 | 61651
5 | 13:42.02 | 2:28.53 | 61652 | 72804
6 | 16:10.55 | 4:09.55 | 72805 | 91534
7 | 20:20.35 | 3:30.02 | 91535 | 107286
8 | 23:50.37 | 2:48.70 | 107287 | 119956
9 | 26:39.32 | 2:56.50 | 119957 | 133206
10 | 29:36.07 | 2:49.23 | 133207 | 145904
11 | 32:25.30 | 2:33.27 | 145905 | 157406
12 | 34:58.57 | 3:41.48 | 157407 | 174029
13 | 38:40.30 | 2:30.42 | 174030 | 185321
14 | 41:10.72 | 3:13.30 | 185322 | 199826
15 | 44:24.27 | 3:27.60 | 199827 | 215411
Характеристики диапазона извлечения и сообщения об ошибках
Выбранный диапазон
Имя файла I:\Music\5 Leyendas\Compay Segundo\5 Leyendas - Compay Segundo.wav
Пиковый уровень 100.0 %
Качество диапазона 99.9 %
CRC копии 1E1091EA
Копирование... OK
Ошибок не произошло
Конец отчёта
1. Saludos compay
2. Chan chan
3. Voy pa' mayari
4. Anita
5. La mujer del Peso
6. Sanluisera
7. Yo soy del monte Compay
8. Sera cuando tu digas
9. Francisco Guayabal
10. Sigue el paso No. 1
11. A los barrios de Santiago
12. De jatibonico a bolondron
13. Sigue el paso No. 2
14. Sigue el paso en la nochebuena
15. Maria en la playa
 
Eliades Ochoa
 
EAC Eliades Ochoa
Exact Audio Copy V0.99 prebeta 4 from 23. January 2008
Отчёт EAC об извлечении, выполненном 22. июня 2009, 16:49
Eliades Ochoa / 5 leyendas - Eliades Ochoa
Дисковод: SONY CD-RW CRX320E Adapter: 0 ID: 2
Режим чтения : Достоверность
Использование точного потока : Да
Отключение кэша аудио : Да
Использование указателей C2 : Нет
Коррекция смещения при чтении : 6
Способность читать области Lead-in и Lead-out : Нет
Заполнение пропущенных сэмплов тишиной : Да
Удаление блоков с тишиной в начале и конце : Нет
При вычислениях CRC использовались нулевые сэмплы : Да
Интерфейс : Встроенный Win32-интерфейс для Win NT/2000
Выходной формат : Внутренние WAV-операции
Формат сэмплов : 44.100 Гц; 16 бит; стерео
TOC извлечённого CD
Трек | Старт | Длительность | Начальный сектор | Конечный сектор
---------------------------------------------------------------------
1 | 0:00.01 | 4:06.35 | 1 | 18485
2 | 4:06.36 | 5:07.55 | 18486 | 41565
3 | 9:14.16 | 4:40.17 | 41566 | 62582
4 | 13:54.33 | 3:46.02 | 62583 | 79534
5 | 17:40.35 | 4:23.66 | 79535 | 99325
6 | 22:04.26 | 4:19.38 | 99326 | 118788
7 | 26:23.64 | 3:48.19 | 118789 | 135907
8 | 30:12.08 | 2:57.51 | 135908 | 149233
9 | 33:09.59 | 3:40.43 | 149234 | 165776
10 | 36:50.27 | 4:35.21 | 165777 | 186422
11 | 41:25.48 | 5:00.22 | 186423 | 208944
12 | 46:25.70 | 3:48.07 | 208945 | 226051
13 | 50:14.02 | 3:14.09 | 226052 | 240610
14 | 53:28.11 | 3:18.20 | 240611 | 255480
Характеристики диапазона извлечения и сообщения об ошибках
Выбранный диапазон
Имя файла I:\Music\5 Leyendas\Eliades Ochoa\5 leyendas - Eliades Ochoa.wav
Пиковый уровень 93.7 %
Качество диапазона 99.9 %
CRC копии 0D3804B6
Копирование... OK
Ошибок не произошло
Конец отчёта
1. El cuarto de tula
2. Estoy hecho tierra
3. En casa de pedro el cojo
4. Alli donde tu sabes
5. La culebra
6. Rita la caimana
7. Que lio compay Andrйs
8. Alma de mujer
9. Mujer perjura
10. Que te parece cholito
11. La comadre catalina
12. La venganza del perico
13. Entre flores
14. Beso discreto
 
Ibrahim Ferrer
 
EAC Ibrahim Ferrer
Exact Audio Copy V0.99 prebeta 4 from 23. January 2008
Отчёт EAC об извлечении, выполненном 22. июня 2009, 15:17
Ibrahim Ferrer / 5 Leyendas - Ibrahim Ferrer
Дисковод: SONY CD-RW CRX320E Adapter: 0 ID: 2
Режим чтения : Достоверность
Использование точного потока : Да
Отключение кэша аудио : Да
Использование указателей C2 : Нет
Коррекция смещения при чтении : 6
Способность читать области Lead-in и Lead-out : Нет
Заполнение пропущенных сэмплов тишиной : Да
Удаление блоков с тишиной в начале и конце : Нет
При вычислениях CRC использовались нулевые сэмплы : Да
Интерфейс : Встроенный Win32-интерфейс для Win NT/2000
Выходной формат : Внутренние WAV-операции
Формат сэмплов : 44.100 Гц; 16 бит; стерео
TOC извлечённого CD
Трек | Старт | Длительность | Начальный сектор | Конечный сектор
---------------------------------------------------------------------
1 | 0:00.00 | 2:59.72 | 0 | 13496
2 | 2:59.72 | 2:43.68 | 13497 | 25789
3 | 5:43.65 | 2:38.52 | 25790 | 37691
4 | 8:22.42 | 2:34.25 | 37692 | 49266
5 | 10:56.67 | 5:10.43 | 49267 | 72559
6 | 16:07.35 | 5:50.20 | 72560 | 98829
7 | 21:57.55 | 5:25.12 | 98830 | 123216
8 | 27:22.67 | 5:04.65 | 123217 | 146081
9 | 32:27.57 | 4:41.30 | 146082 | 167186
10 | 37:09.12 | 4:11.45 | 167187 | 186056
11 | 41:20.57 | 3:46.05 | 186057 | 203011
12 | 45:06.62 | 5:13.63 | 203012 | 226549
13 | 50:20.50 | 4:00.67 | 226550 | 244616
14 | 54:21.42 | 3:27.50 | 244617 | 260191
15 | 57:49.17 | 3:28.58 | 260192 | 275849
Характеристики диапазона извлечения и сообщения об ошибках
Выбранный диапазон
Имя файла I:\Music\5 Leyendas\Ibrahim Ferrer\5 Leyendas - Ibrahim Ferrer.wav
Пиковый уровень 100.0 %
Качество диапазона 99.9 %
CRC копии 8F50F490
Копирование... OK
Ошибок не произошло
Конец отчёта
1. El botellero
2. Como la piel canela
3. Fomento
4. Monte adentro
5. En que parte de Cuba nacio el son
6. Asi es la vida Compay
7. Todavia me queda voz
8. El son de la Santiaguera
9. Cucuruchito de coco
10. Esto se baila y se toca
11. Ahora no puedo
12. Mi tonada montuna
13. Estoy seco y me quiero mojar
14. Manana me voy pa' Sibanicu
15. El platanal de bartolo
 
Omara Portuondo
 
EAC Omara Portuondo
Exact Audio Copy V0.99 prebeta 4 from 23. January 2008
Отчёт EAC об извлечении, выполненном 22. июня 2009, 15:43
Omara Portuondo / 5 leyendas - Omara Portuondo
Дисковод: SONY CD-RW CRX320E Adapter: 0 ID: 2
Режим чтения : Достоверность
Использование точного потока : Да
Отключение кэша аудио : Да
Использование указателей C2 : Нет
Коррекция смещения при чтении : 6
Способность читать области Lead-in и Lead-out : Нет
Заполнение пропущенных сэмплов тишиной : Да
Удаление блоков с тишиной в начале и конце : Нет
При вычислениях CRC использовались нулевые сэмплы : Да
Интерфейс : Встроенный Win32-интерфейс для Win NT/2000
Выходной формат : Внутренние WAV-операции
Формат сэмплов : 44.100 Гц; 16 бит; стерео
TOC извлечённого CD
Трек | Старт | Длительность | Начальный сектор | Конечный сектор
---------------------------------------------------------------------
1 | 0:00.01 | 3:39.06 | 1 | 16431
2 | 3:39.07 | 3:47.20 | 16432 | 33476
3 | 7:26.27 | 4:35.32 | 33477 | 54133
4 | 12:01.59 | 4:32.53 | 54134 | 74586
5 | 16:34.37 | 4:07.31 | 74587 | 93142
6 | 20:41.68 | 2:36.35 | 93143 | 104877
7 | 23:18.28 | 3:09.06 | 104878 | 119058
8 | 26:27.34 | 5:19.61 | 119059 | 143044
9 | 31:47.20 | 3:24.18 | 143045 | 158362
10 | 35:11.38 | 2:42.72 | 158363 | 170584
11 | 37:54.35 | 3:21.56 | 170585 | 185715
12 | 41:16.16 | 2:18.05 | 185716 | 196070
13 | 43:34.21 | 3:54.60 | 196071 | 213680
14 | 47:29.06 | 3:17.32 | 213681 | 228487
15 | 50:46.38 | 4:56.63 | 228488 | 250750
Характеристики диапазона извлечения и сообщения об ошибках
Выбранный диапазон
Имя файла I:\Music\5 Leyendas\Omara Portuondo\5 leyendas - Omara Portuondo.wav
Пиковый уровень 93.7 %
Качество диапазона 99.9 %
CRC копии 3378D586
Копирование... OK
Ошибок не произошло
Конец отчёта
1. Echale salsita
2. Lo que me queda por vivir
3. Mi son caliente
4. Vuela pena
5. Guitarra en son mayor
6. Nada para ti
7. Vieja luna
8. Te queria
9. Vale la pena vivir
10. Toda una vida
11. Eso no lo he dicho yo
12. Me acostumbre a estar sin ti
13. Y mucho mas
14. Nosotros
15. Agua que cae del cielo
 
Ruben Gonzales
 
EAC Ruben Gonzales
Exact Audio Copy V0.99 prebeta 4 from 23. January 2008
Отчёт EAC об извлечении, выполненном 22. июня 2009, 16:01
Ruben Gonzales / 5 Leyendas - Ruben Gonzales
Дисковод: SONY CD-RW CRX320E Adapter: 0 ID: 2
Режим чтения : Достоверность
Использование точного потока : Да
Отключение кэша аудио : Да
Использование указателей C2 : Нет
Коррекция смещения при чтении : 6
Способность читать области Lead-in и Lead-out : Нет
Заполнение пропущенных сэмплов тишиной : Да
Удаление блоков с тишиной в начале и конце : Нет
При вычислениях CRC использовались нулевые сэмплы : Да
Интерфейс : Встроенный Win32-интерфейс для Win NT/2000
Выходной формат : Внутренние WAV-операции
Формат сэмплов : 44.100 Гц; 16 бит; стерео
TOC извлечённого CD
Трек | Старт | Длительность | Начальный сектор | Конечный сектор
---------------------------------------------------------------------
1 | 0:00.01 | 3:20.29 | 1 | 15029
2 | 3:20.30 | 3:06.22 | 15030 | 29001
3 | 6:26.52 | 2:45.35 | 29002 | 41411
4 | 9:12.12 | 4:13.21 | 41412 | 60407
5 | 13:25.33 | 3:14.45 | 60408 | 75002
6 | 16:40.03 | 3:28.33 | 75003 | 90635
7 | 20:08.36 | 3:52.62 | 90636 | 108097
8 | 24:01.23 | 2:32.11 | 108098 | 119508
9 | 26:33.34 | 3:40.35 | 119509 | 136043
10 | 30:13.69 | 3:02.60 | 136044 | 149753
11 | 33:16.54 | 3:32.47 | 149754 | 165700
12 | 36:49.26 | 2:50.52 | 165701 | 178502
13 | 39:40.03 | 3:09.69 | 178503 | 192746
14 | 42:49.72 | 2:34.37 | 192747 | 204333
15 | 45:24.34 | 2:24.33 | 204334 | 215166
Характеристики диапазона извлечения и сообщения об ошибках
Выбранный диапазон
Имя файла I:\Music\5 Leyendas\Ruben Gonzales\5 Leyendas - Ruben Gonzales.wav
Пиковый уровень 87.2 %
Качество диапазона 99.9 %
CRC копии E0514B01
Копирование... OK
Ошибок не произошло
Конец отчёта
1. To te enseno lola
2. Soplete
3. Prestame la bicicleta
4. Date una vueltecita
5. Ambrosio
6. La gloria eres tu
7. Noneto
8. Nuestra canciуn
9. Moby Dick
10. Todo aquel ayer
11. ?De que te quejas?
12. Mil congojas
13. Sancho
14. Cuidad oscura
15. Que infelicidad
07:48
780
Нет комментариев. Ваш будет первым!