Поиск

(Cuban Jazz) Ruben Gonzalez - Chanchullo - 2000, APE (image+.cue), lossless

Треклист:
Ruben Gonzalez - Chanchullo
Жанр: Cuban Jazz
Страна-производитель диска: Recorded at EGREM Studios, Havana and Angel Studio
Год издания диска: 2000
Издатель (лейбл): World Circuit
Номер по каталогу: WCD060
Страна: Encrucijada, Cuba
Аудиокодек: APE (*.ape)
Тип рипа: image+.cue
Битрейт аудио: lossless
Продолжительность: 00:51:10
Источник (релизер): rat24
Наличие сканов в содержимом раздачи: да
01. Chanchullo (descarga) [05:12]
02. De una manera espantosa (son montuno) [04:18]
03. La lluvia (descarga) [05:18]
04. Central Constancia (danzуn) [05:57]
05. Quizбs, quizas (boloero cha) [02:29]
06. Choco's Guajira (son guajira) [06:52]
07. Si te contara (boloero) [01:28]
08. El Bodeguero (cha cha cha) [05:12]
09. Isora Club (danzуn) [05:35]
10. Rico vacilуn (cha cha cha) [04:12]
11. Pa' gozar (descarga) [04:30]
 
Лог создания рипа
EAC extraction logfile from 22. July 2007, 22:11 for CD
Ruben Gonzalez / Chanchullo
Used drive : SAMSUNG CD-R/RW SW-248F Adapter: 0 ID: 0
Read mode : Secure with NO C2, accurate stream, disable cache
Read offset correction : 97
Overread into Lead-In and Lead-Out : No
Used output format : Internal WAV Routines
44.100 Hz; 16 Bit; Stereo
Other options :
Fill up missing offset samples with silence : Yes
Delete leading and trailing silent blocks : No
Installed external ASPI interface
Range status and errors
Selected range
Filename E:\Ruben Gonzalez - Chanchullo.by.rat.eac-ape\Ruben Gonzalez - Chanchullo.wav
Peak level 100.0 %
Range quality 100.0 %
CRC 8F2C4921
Copy OK
No errors occured
End of status report
 
Содержание индексной карты (.CUE)
REM GENRE Latin
REM DATE 2000
REM DISCID 9D0BFD0B
REM COMMENT "ExactAudioCopy v0.95b4"
PERFORMER "Ruben Gonzalez"
TITLE "Chanchullo"
FILE "Ruben Gonzalez - Chanchullo.wav" WAVE
TRACK 01 AUDIO
TITLE "Chanchullo (descarga)"
PERFORMER "Ruben Gonzalez"
INDEX 01 00:00:00
TRACK 02 AUDIO
TITLE "De una manera espantosa (son montuno)"
PERFORMER "Ruben Gonzalez"
INDEX 00 05:08:52
INDEX 01 05:12:22
TRACK 03 AUDIO
TITLE "La lluvia (descarga)"
PERFORMER "Ruben Gonzalez"
INDEX 00 09:28:13
INDEX 01 09:31:08
TRACK 04 AUDIO
TITLE "Central Constancia (danzуn)"
PERFORMER "Ruben Gonzalez"
INDEX 00 14:45:69
INDEX 01 14:50:01
TRACK 05 AUDIO
TITLE "Quizas, quizas (boloero cha)"
PERFORMER "Ruben Gonzalez"
INDEX 00 20:46:10
INDEX 01 20:47:32
TRACK 06 AUDIO
TITLE "Choco's Guajira (son guajira)"
PERFORMER "Ruben Gonzalez"
INDEX 00 23:13:00
INDEX 01 23:17:18
TRACK 07 AUDIO
TITLE "Si te contara (boloero)"
PERFORMER "Ruben Gonzalez"
INDEX 00 30:04:18
INDEX 01 30:09:21
TRACK 08 AUDIO
TITLE "El Bodeguero (cha cha cha)"
PERFORMER "Ruben Gonzalez"
INDEX 00 31:36:45
INDEX 01 31:37:73
TRACK 09 AUDIO
TITLE "Isora Club (danzуn)"
PERFORMER "Ruben Gonzalez"
INDEX 00 36:47:34
INDEX 01 36:50:46
TRACK 10 AUDIO
TITLE "Rico vacilуn (cha cha cha)"
PERFORMER "Ruben Gonzalez"
INDEX 00 42:23:16
INDEX 01 42:26:45
TRACK 11 AUDIO
TITLE "Pa' gozar (descarga)"
PERFORMER "Ruben Gonzalez"
INDEX 00 46:36:27
INDEX 01 46:39:11
 
Состав
Acoustic Guitar – Eliades Ochoa (tracks: 5)
Bass – Orlando "Cachaíto" López
Bongos, Cowbell, Percussion [Güiro] – Roberto García
Chorus – Ibrahim Ferrer, Jesús "Aguaje" Remos, Lázaro Villa
Congas – Angel Terry, Miguel "Angá" Díaz (tracks: 2, 3, 6)
Directed By – Jesús "Aguaje" Remos
Drums – Joachim Cooder (tracks: 10)
Flute – Joaquín Oliveiras (tracks: 4), Richard Egües (tracks: 4, 5)
Guiro, Claves – Alejandro Pichardo Perez*
Maracas – Alberto "Virgilio" Valdés
Mixed By – Jerry Boys
Piano – Rubén González
Producer – Nick Gold
Saxophone – Javier Zalba (tracks: 1)
Timbales – Amadito Valdés
Tres – Papi Oviedo (tracks: 6), Ry Cooder (tracks: 10)
Trombone – Jesús "Aguaje" Remos
Trumpet – Mañuel 'Guajiro' Mirabal
Violin – Lázaro Ordóñez Enriquez (tracks: 4)
Vocals – Cheikh Lô (tracks: 6), Ibrahim Ferrer (tracks: 2, 6), Jesús "Aguaje" Remos (tracks: 4), Lázaro Villa (tracks: 4)
23:51
298
Нет комментариев. Ваш будет первым!