Поиск

(Cuban Jazz) Marc Ribot y Los Cubanos Postizos - Muy Divertido! (Very Entertaining!) {Atlantic} - 2000, FLAC (tracks+.cue), lossless

(Cuban Jazz) Marc Ribot y Los Cubanos Postizos - Muy Divertido! (Very Entertaining!) {Atlantic} - 2000, FLAC (tracks+.cue), lossless
Треклист:
Marc Ribot y Los Cubanos Postizos
Muy Divertido! (Very Entertaining!)


Жанр: Cuban Jazz
Год выпуска диска: 2000
Производитель диска: USA (Atlantic 83293-2)
Аудио кодек: FLAC
Тип рипа: tracks+.cue
Битрейт аудио: lossless
Продолжительность: 42:42
1. Dame un Cachito Pa'Huele (3.15) (Arsenio Rodriguez)
2. Las Lomas de New Jersey (4:36) (Marc Ribot)
3. El Gaucho Rojo (5:55) (Marc Ribot)
4. Obsesión (4:19) (Pedro Flores)
5. El Divorcio (3:44) (Arsenio Rodriguez)
6. Se Formó el Bochinche (4:31) (Israel Rodriguez)
7. Baile Baile Baile (4:03) (Marc Ribot)
8. No Puedo Frenar (4:31) (Pedro Flores)
9. Jaguey (4:32) (Arsenio Rodriguez)
10. Carmela Dame la Llave (3:14) (A.L. Torruellas)
Marc Ribot y Los Cubanos Postizos are:
Marc Ribot - guitars & vocals
Anthony Coleman - keyboards
Brad Jones - bass, 12-string guitar on (4)
E.J. Rodriguez - conga & percussion, lead vocal on (6)
Roberto Rodriguez - drum, timbales, timpani & percussion
with special guests:
(1): Eszter Balint - vocals; Steve Nieve - organ solo
(2): Frankie Vasquez - lead vocals & percussion
(4): Marcus Rojas - tuba; Andy Taub - keyboard
(6): Eszter Balint - background vocals; Frankie Vasquez - background vocals & percussion
(7): Eszter Balint - background vocals; JD Foster - bass
(8): Riley Osborne - additional organ
(10): Riley Osborne - organ solo; Frankie Vasquez - background vocals & percussion
Produced by JD Foster
Recorded by Andy Taub
Mixed by Andy Taub and JD Foster
Recorded at The Magic Shop, New York, NY
(p)(c) 2000 Atlantic Recording Corporation
Atlantic 83293-2
 
EAC extraction logfile
Exact Audio Copy V0.99 prebeta 4 from 23. January 2008
EAC extraction logfile from 8. January 2009, 19:37
Marc Ribot y Los Cubanos Postizos / Muy Divertido! (Very Entertaining!)
Used drive : PLEXTOR DVDR PX-760A Adapter: 0 ID: 0
Read mode : Secure
Utilize accurate stream : Yes
Defeat audio cache : Yes
Make use of C2 pointers : No
Read offset correction : 30
Overread into Lead-In and Lead-Out : Yes
Fill up missing offset samples with silence : Yes
Delete leading and trailing silent blocks : No
Null samples used in CRC calculations : Yes
Used interface : Native Win32 interface for Win NT & 2000
Gap handling : Appended to previous track
Used output format : User Defined Encoder
Selected bitrate : 128 kBit/s
Quality : High
Add ID3 tag : No
Command line compressor : C:\Program Files\FLAC\flac.exe
Additional command line options : -8 -V -T "ARTIST=%a" -T "TITLE=%t" -T "ALBUM=%g" -T "DATE=%y" -T "TRACKNUMBER=%n" -T "GENRE=%m" -T "COMMENT=EAC FLAC -8" %s
TOC of the extracted CD
Track | Start | Length | Start sector | End sector
---------------------------------------------------------
1 | 0:00.32 | 3:15.00 | 32 | 14656
2 | 3:15.32 | 4:36.60 | 14657 | 35416
3 | 7:52.17 | 5:55.35 | 35417 | 62076
4 | 13:47.52 | 4:19.43 | 62077 | 81544
5 | 18:07.20 | 3:43.67 | 81545 | 98336
6 | 21:51.12 | 4:29.65 | 98337 | 118576
7 | 26:21.02 | 4:04.30 | 118577 | 136906
8 | 30:25.32 | 4:30.35 | 136907 | 157191
9 | 34:55.67 | 4:32.50 | 157192 | 177641
10 | 39:28.42 | 3:14.10 | 177642 | 192201
Track 1
Filename J:\Marc Ribot y Los Cubanos Postizos - Muy Divertido! (Very Entertaining!) (2000) [FLAC]\01 - Dame un Cachito Pa'Huele.wav
Pre-gap length 0:00:02.32
Peak level 100.0 %
Track quality 100.0 %
Test CRC 656F795A
Copy CRC 656F795A
Accurately ripped (confidence 6) [DD12C87C]
Copy OK
Track 2
Filename J:\Marc Ribot y Los Cubanos Postizos - Muy Divertido! (Very Entertaining!) (2000) [FLAC]\02 - Las Lomas de New Jersey.wav
Pre-gap length 0:00:00.62
Peak level 100.0 %
Track quality 100.0 %
Test CRC B798C326
Copy CRC B798C326
Accurately ripped (confidence 6) [EDCFDA9C]
Copy OK
Track 3
Filename J:\Marc Ribot y Los Cubanos Postizos - Muy Divertido! (Very Entertaining!) (2000) [FLAC]\03 - El Gaucho Rojo.wav
Pre-gap length 0:00:01.12
Peak level 100.0 %
Track quality 100.0 %
Test CRC EBCC3A32
Copy CRC EBCC3A32
Accurately ripped (confidence 6) [6A5F03F1]
Copy OK
Track 4
Filename J:\Marc Ribot y Los Cubanos Postizos - Muy Divertido! (Very Entertaining!) (2000) [FLAC]\04 - Obsesion.wav
Pre-gap length 0:00:01.62
Peak level 100.0 %
Track quality 100.0 %
Test CRC 8D4205DC
Copy CRC 8D4205DC
Accurately ripped (confidence 6) [CA684B3A]
Copy OK
Track 5
Filename J:\Marc Ribot y Los Cubanos Postizos - Muy Divertido! (Very Entertaining!) (2000) [FLAC]\05 - El Divorcio.wav
Pre-gap length 0:00:00.60
Peak level 100.0 %
Track quality 100.0 %
Test CRC DE2322A2
Copy CRC DE2322A2
Accurately ripped (confidence 6) [D1DCA862]
Copy OK
Track 6
Filename J:\Marc Ribot y Los Cubanos Postizos - Muy Divertido! (Very Entertaining!) (2000) [FLAC]\06 - Se Formo el Bochinche.wav
Pre-gap length 0:00:00.62
Peak level 100.0 %
Track quality 100.0 %
Test CRC C631896D
Copy CRC C631896D
Accurately ripped (confidence 6) [41DF184F]
Copy OK
Track 7
Filename J:\Marc Ribot y Los Cubanos Postizos - Muy Divertido! (Very Entertaining!) (2000) [FLAC]\07 - Baile Baile Baile.wav
Pre-gap length 0:00:00.10
Peak level 100.0 %
Track quality 99.9 %
Test CRC 13E16B5E
Copy CRC 13E16B5E
Accurately ripped (confidence 6) [EE51F6C7]
Copy OK
Track 8
Filename J:\Marc Ribot y Los Cubanos Postizos - Muy Divertido! (Very Entertaining!) (2000) [FLAC]\08 - No Puedo Frenar.wav
Pre-gap length 0:00:01.07
Peak level 100.0 %
Track quality 100.0 %
Test CRC 18736E7D
Copy CRC 18736E7D
Accurately ripped (confidence 6) [315B59DA]
Copy OK
Track 9
Filename J:\Marc Ribot y Los Cubanos Postizos - Muy Divertido! (Very Entertaining!) (2000) [FLAC]\09 - Jaguey.wav
Pre-gap length 0:00:00.20
Peak level 100.0 %
Track quality 100.0 %
Test CRC 0F99B7BA
Copy CRC 0F99B7BA
Accurately ripped (confidence 6) [21AC8807]
Copy OK
Track 10
Filename J:\Marc Ribot y Los Cubanos Postizos - Muy Divertido! (Very Entertaining!) (2000) [FLAC]\10 - Carmela Dame la Llave.wav
Pre-gap length 0:00:00.52
Peak level 100.0 %
Track quality 100.0 %
Test CRC A7EA5C05
Copy CRC A7EA5C05
Accurately ripped (confidence 6) [8D3547AA]
Copy OK
All tracks accurately ripped
No errors occurred
End of status report
Собственный рип с оригинального диска.
В комплекте полный набор сканов PNG/300dpi.
04:17
308
Нет комментариев. Ваш будет первым!