Поиск

(Cuban Jazz, Latin Jazz, World Fusion) Emiliano Salvador - Ayer y Hoy - 1994, APE (image+.cue), lossless

Треклист:
Emiliano Salvador - Ayer y Hoy
Жанр: Cuban Jazz, Latin Jazz, World Fusion
Страна-производитель диска: USA
Год издания диска: 1994
Издатель (лейбл): Qbadisc
Номер по каталогу: QB-9011
Страна: Cuba
Аудиокодек: APE (*.ape)
Тип рипа: image+.cue
Битрейт аудио: lossless
Продолжительность: 00:51:53
Источник (релизер): dreadbull
Наличие сканов в содержимом раздачи: да
01. Danza para cuatro [03:00]
02. Cha-cha-cha junto a ti [04:56]
03. La vida es un sueno [02:43]
04. Una manana de domingo [08:41]
05. Capullito de aleli [04:55]
06. Samba-conga [06:56]
07. Para luego es tarde (Danzon) [05:03]
08. Alli [03:15]
09. Transcurso de una travesia [05:26]
10. Quinta avenida [06:54]
Recorded at EGREM studios, La Habana, Cuba, in 1992
 
Лог создания рипа
Exact Audio Copy V1.0 beta 2 from 29. April 2011
EAC extraction logfile from 24. January 2012, 20:12
Emiliano Salvador / Ayer y Hoy
Used drive : ASUS DRW-22B2L Adapter: 0 ID: 1
Read mode : Secure
Utilize accurate stream : Yes
Defeat audio cache : Yes
Make use of C2 pointers : No
Read offset correction : 6
Overread into Lead-In and Lead-Out : No
Fill up missing offset samples with silence : Yes
Delete leading and trailing silent blocks : No
Null samples used in CRC calculations : Yes
Used interface : Native Win32 interface for Win NT & 2000
Used output format : Internal WAV Routines
Sample format : 44.100 Hz; 16 Bit; Stereo
TOC of the extracted CD
Track | Start | Length | Start sector | End sector
---------------------------------------------------------
1 | 0:00.50 | 3:06.47 | 50 | 14046
2 | 3:07.22 | 5:02.33 | 14047 | 36729
3 | 8:09.55 | 2:51.45 | 36730 | 49599
4 | 11:01.25 | 8:48.37 | 49600 | 89236
5 | 19:49.62 | 4:59.45 | 89237 | 111706
6 | 24:49.32 | 7:01.38 | 111707 | 143319
7 | 31:50.70 | 5:07.50 | 143320 | 166394
8 | 36:58.45 | 3:23.65 | 166395 | 181684
9 | 40:22.35 | 5:33.12 | 181685 | 206671
10 | 45:55.47 | 6:54.28 | 206672 | 237749
Range status and errors
Selected range
Filename D:\Donkey Files\Emiliano Salvador - Ayer y Hoy (1994, Qbadisc) [eac-ape-scans] byDrBull\Emiliano Salvador - Ayer y Hoy.wav
Peak level 100.0 %
Extraction speed 3.0 X
Range quality 100.0 %
Test CRC 08EE1672
Copy CRC 08EE1672
Copy OK
No errors occurred
AccurateRip summary
Track 1 not present in database
Track 2 not present in database
Track 3 not present in database
Track 4 not present in database
Track 5 not present in database
Track 6 not present in database
Track 7 not present in database
Track 8 not present in database
Track 9 not present in database
Track 10 not present in database
None of the tracks are present in the AccurateRip database
End of status report
==== Log checksum 8C8CC69BBC82BE7D314BA534F4D74AA080A023CA93364D12F0EBA758AF15039F ====
 
Содержание индексной карты (.CUE)
REM GENRE Latin
REM DATE 1994
REM DISCID 800C620A
REM COMMENT "ExactAudioCopy v1.0b2"
CATALOG 0000000000000
PERFORMER "Emiliano Salvador"
TITLE "Ayer y Hoy"
FILE "Emiliano Salvador - Ayer y Hoy.wav" WAVE
TRACK 01 AUDIO
TITLE "Danza para cuatro"
PERFORMER "Emiliano Salvador"
INDEX 00 00:00:00
INDEX 01 00:00:50
TRACK 02 AUDIO
TITLE "Cha-cha-cha junto a ti"
PERFORMER "Emiliano Salvador"
INDEX 00 03:01:28
INDEX 01 03:07:22
TRACK 03 AUDIO
TITLE "La vida es un sueno"
PERFORMER "Emiliano Salvador"
INDEX 00 08:03:53
INDEX 01 08:09:55
TRACK 04 AUDIO
TITLE "Una manana de domingo"
PERFORMER "Emiliano Salvador"
INDEX 00 10:53:38
INDEX 01 11:01:25
TRACK 05 AUDIO
TITLE "Capullito de aleli"
PERFORMER "Emiliano Salvador"
INDEX 00 19:42:45
INDEX 01 19:49:62
TRACK 06 AUDIO
TITLE "Samba-conga"
PERFORMER "Emiliano Salvador"
INDEX 00 24:45:18
INDEX 01 24:49:32
TRACK 07 AUDIO
TITLE "Para luego es tarde (Danzon)"
PERFORMER "Emiliano Salvador"
INDEX 00 31:45:43
INDEX 01 31:50:70
TRACK 08 AUDIO
TITLE "Alli"
PERFORMER "Emiliano Salvador"
INDEX 00 36:54:25
INDEX 01 36:58:45
TRACK 09 AUDIO
TITLE "Transcurso de una travesia"
PERFORMER "Emiliano Salvador"
INDEX 00 40:14:15
INDEX 01 40:22:35
TRACK 10 AUDIO
TITLE "Quinta avenida"
PERFORMER "Emiliano Salvador"
INDEX 00 45:48:45
INDEX 01 45:55:47
 
Состав
Emiliano Salvador - piano, arranger, musical director;
Eduardo Ramos - general director;
Carlos del Puerto, Jr. - bass;
Conrado "Coqui" García - drums;
Miguel Valdés - percussion;
Joaquín Oliveros - flute (#1,7);
Sergio Pereda, Reinaldo Sanler, René Baños, Luis Alberto Alzaga - coro (#1,7);
Pancho Amat - tres (#3,8);
Pablo Milanés - vocals (#3,8).
02:35
261
Нет комментариев. Ваш будет первым!