Поиск

(Cuban Jazz) Frank Emilio Flynn - Ancestral Reflections / Reflejos Ancestrales - 1999, FLAC (image+.cue), lossless

Треклист:
Frank Emilio Flynn - Ancestral Reflections / Reflejos Ancestrales
Жанр: Cuban Jazz
Страна-производитель диска: USA
Год издания: 1999
Издатель (лейбл): Blue Note
Номер по каталогу: 98918-2
Страна: Havana, Cuba
Аудиокодек: FLAC (*.flac)
Тип рипа: image+.cue
Битрейт аудио: lossless
Продолжительность: 00:54:53
Источник (релизер): dreadbull
Наличие сканов в содержимом раздачи: да
01. Guerra De Flautas [10:53]
02. Rico Melao [03:28]
03. La Mulata Rumbera [06:38]
04. La Conga Se Va [02:44]
05. Rumba Elegante [04:22]
06. Bilongo [08:04]
07. El Arroyo Que Murmura [02:02]
08. Juventud De Pueblo Nuevo [06:33]
09. Reflejos Ancestrales [10:04]
Recorded at Abdala Studios, Habana, Cuba, Nov 20-24, 1998
 
Лог создания рипа
Exact Audio Copy V1.0 beta 3 from 29. August 2011
EAC extraction logfile from 20. March 2012, 11:49
Frank Emilio / Reflejos Ancestrales
Used drive : ASUS DRW-22B2L Adapter: 0 ID: 1
Read mode : Secure
Utilize accurate stream : Yes
Defeat audio cache : Yes
Make use of C2 pointers : No
Read offset correction : 6
Overread into Lead-In and Lead-Out : No
Fill up missing offset samples with silence : Yes
Delete leading and trailing silent blocks : No
Null samples used in CRC calculations : Yes
Used interface : Native Win32 interface for Win NT & 2000
Used output format : User Defined Encoder
Selected bitrate : 128 kBit/s
Quality : High
Add ID3 tag : Yes
Command line compressor : C:\Program Files\FLAC\flac.exe
Additional command line options : -8 -V -T "ARTIST=%artist%" -T "TITLE=%title%" -T "ALBUM=%albumtitle%" -T "DATE=%year%" -T "TRACKNUMBER=%tracknr%" -T "GENRE=%genre%" -T "PERFORMER=%albuminterpret%" -T "COMPOSER=%composer%" %haslyrics%--tag-from-file=LYRICS="%lyricsfile%"%haslyrics% -T "ALBUMARTIST=%albumartist%" -T "DISCNUMBER=%cdnumber%" -T "TOTALDISCS=%totalcds%" -T "TOTALTRACKS=%numtracks%" -T "COMMENT=%comment%" %source% -o %dest%
TOC of the extracted CD
Track | Start | Length | Start sector | End sector
---------------------------------------------------------
1 | 0:00.00 | 10:53.52 | 0 | 49026
2 | 10:53.52 | 3:28.45 | 49027 | 64671
3 | 14:22.22 | 6:38.43 | 64672 | 94564
4 | 21:00.65 | 2:44.25 | 94565 | 106889
5 | 23:45.15 | 4:23.05 | 106890 | 126619
6 | 28:08.20 | 8:05.10 | 126620 | 163004
7 | 36:13.30 | 2:03.42 | 163005 | 172271
8 | 38:16.72 | 6:33.68 | 172272 | 201814
9 | 44:50.65 | 10:04.62 | 201815 | 247176
Range status and errors
Selected range
Filename D:\Donkey Files\Frank Emilio - Ancestral Reflections (1999, Blue Note) [eac-flac-scans] byDrBull\Frank Emilio - Reflejos Ancestrales.wav
Peak level 98.8 %
Extraction speed 3.2 X
Range quality 100.0 %
Test CRC 3C2A832F
Copy CRC 3C2A832F
Copy OK
No errors occurred
AccurateRip summary
Track 1 accurately ripped (confidence 1) [BC6A1E39] (AR v1)
Track 2 accurately ripped (confidence 1) [F59F7DC8] (AR v1)
Track 3 accurately ripped (confidence 1) [843CB622] (AR v1)
Track 4 accurately ripped (confidence 1) [6B79DBC5] (AR v1)
Track 5 accurately ripped (confidence 1) [BB812EBC] (AR v1)
Track 6 accurately ripped (confidence 1) [F85521E6] (AR v1)
Track 7 accurately ripped (confidence 1) [47C1E3BF] (AR v1)
Track 8 accurately ripped (confidence 1) [6C244876] (AR v1)
Track 9 accurately ripped (confidence 1) [610C45D0] (AR v1)
All tracks accurately ripped
End of status report
==== Log checksum C282A9F4A85AB9A3EF29CBA96AEF1CE31B87F6B439E4D148651633CAAF9AE20E ====
 
Содержание индексной карты (.CUE)
REM GENRE Latin
REM DISCID 840CDF09
REM COMMENT "ExactAudioCopy v1.0b3"
CATALOG 0724349891821
PERFORMER "Frank Emilio"
TITLE "Reflejos Ancestrales"
FILE "Frank Emilio - Reflejos Ancestrales.flac" WAVE
TRACK 01 AUDIO
TITLE "Guerra De Flautas"
PERFORMER "Frank Emilio"
ISRC C@lY39900144
INDEX 01 00:00:00
TRACK 02 AUDIO
TITLE "Rico Melao"
PERFORMER "Frank Emilio"
ISRC C@lY39900145
INDEX 01 10:53:52
TRACK 03 AUDIO
TITLE "La Mulata Rumbera"
PERFORMER "Frank Emilio"
ISRC C@lY39900146
INDEX 00 14:22:20
INDEX 01 14:22:22
TRACK 04 AUDIO
TITLE "La Conga Se Va"
PERFORMER "Frank Emilio"
ISRC C@lY39900147
INDEX 01 21:00:65
TRACK 05 AUDIO
TITLE "Rumba Elegante"
PERFORMER "Frank Emilio"
ISRC C@lY39900148
INDEX 01 23:45:15
TRACK 06 AUDIO
TITLE "Bilongo"
PERFORMER "Frank Emilio"
ISRC C@lY39900149
INDEX 00 28:08:00
INDEX 01 28:08:20
TRACK 07 AUDIO
TITLE "El Arroyo Que Murmura"
PERFORMER "Frank Emilio"
ISRC C@lY39900150
INDEX 00 36:13:00
INDEX 01 36:13:30
TRACK 08 AUDIO
TITLE "Juventud De Pueblo Nuevo"
PERFORMER "Frank Emilio"
ISRC C@lY39900151
INDEX 00 38:16:17
INDEX 01 38:16:72
TRACK 09 AUDIO
TITLE "Reflejos Ancestrales"
PERFORMER "Frank Emilio"
ISRC C@lY39900152
INDEX 00 44:50:27
INDEX 01 44:50:65
 
Состав
Frank Emilio - piano
William Rubalcaba - bass
Joaquín Olivero Gavilán - 13-key wooden flute
Lázaro Jesús Ordóñez Enríquez - 1st violin, solos on #1,6
Pablo A. Mesa Suárez - 2nd violin
José Lúis "Changuito" Quintana - timbales
Federico Arístides "Tata Güines" Soto - congas
Enrique Lazaga Varona - tom-tom, güiro, claves
Juan Crespo Masa, Enrique Contreras Orama - coro
guest artists:
Orlando "Maraca" Valle - flute (#1,6)
Barbaro Torres Delgado - lute (#7)
02:28
277
Нет комментариев. Ваш будет первым!