Поиск

(Cuban Jazz, Folk) [CD] Ruben Lester - Simple - 2011, FLAC (tracks+.cue), lossless

(Cuban Jazz, Folk) [CD] Ruben Lester - Simple - 2011, FLAC (tracks+.cue), lossless
Треклист:
ruben
lester
simple

Жанр : Cuban Jazz, Folk | Страна: Cuba
Страна-производитель диска : Cuba | Год издания диска : 2011
Издатель (лейбл) : Bis Music | Номер по каталогу : CD 805
Битрейт аудио :lossless | Тип рипа: tracks +.cue
Аудиокодек: FLAC (*.flac) | Источник (релизер) : мой рип
Продолжительность: 36:50 | сканы : 300 dpi (.png)
Tracks:
01 _ el carrusel---3:06
02 _ la mannanita---3:53
03 _ gente---4:18
04 _ doce horas---3:55
05 _ mililitro---3:21
06 _ someday---3:39
07 _ santa--- 3:47
08 _ lobo sato--- 4:47
09 _ morena--- 3:34
10 _ la sabrosura---2:25
------(bonus track)
 
Лог создания рипа
Exact Audio Copy V1.0 beta 3 from 29. August 2011
EAC extraction logfile from 21. October 2014, 15:15
Ruben Lester / Simple
Used drive : GENERIC CDRCB06 Adapter: 2 ID: 0
Read mode : Secure
Utilize accurate stream : Yes
Defeat audio cache : Yes
Make use of C2 pointers : No
Read offset correction : 102
Overread into Lead-In and Lead-Out : No
Fill up missing offset samples with silence : Yes
Delete leading and trailing silent blocks : No
Null samples used in CRC calculations : Yes
Used interface : Native Win32 interface for Win NT & 2000
Gap handling : Appended to previous track
Used output format : User Defined Encoder
Selected bitrate : 896 kBit/s
Quality : High
Add ID3 tag : No
Command line compressor : C:\Program Files\Exact Audio Copy\Flac\flac.exe
Additional command line options : -V -8 -T "Genre=%genre%" -T "Artist=%artist%" -T "Title=%title%" -T "Album=%albumtitle%" -T "Date=%year%" -T "Tracknumber=%tracknr%" -T "Comment=EAC1.0b3 FLAC -8" %source%
TOC of the extracted CD
Track | Start | Length | Start sector | End sector
---------------------------------------------------------
1 | 0:00.00 | 3:06.42 | 0 | 13991
2 | 3:06.42 | 3:53.60 | 13992 | 31526
3 | 7:00.27 | 4:18.26 | 31527 | 50902
4 | 11:18.53 | 3:55.54 | 50903 | 68581
5 | 15:14.32 | 3:21.64 | 68582 | 83720
6 | 18:36.21 | 3:39.36 | 83721 | 100181
7 | 22:15.57 | 3:47.20 | 100182 | 117226
8 | 26:03.02 | 4:47.42 | 117227 | 138793
9 | 30:50.44 | 3:35.08 | 138794 | 154926
10 | 34:25.52 | 2:25.20 | 154927 | 165821
Track 1
Filename C:\my rips\ruben lister-simple-2010\01 Carrusel.wav
Pre-gap length 0:00:02.00
Peak level 97.7 %
Extraction speed 1.9 X
Track quality 99.9 %
Test CRC 294E127D
Copy CRC 294E127D
Track not present in AccurateRip database
Copy OK
Track 2
Filename C:\my rips\ruben lister-simple-2010\02 La Mananita.wav
Peak level 97.7 %
Extraction speed 2.5 X
Track quality 100.0 %
Test CRC 99997282
Copy CRC 99997282
Track not present in AccurateRip database
Copy OK
Track 3
Filename C:\my rips\ruben lister-simple-2010\03 Gente.wav
Peak level 97.7 %
Extraction speed 2.9 X
Track quality 100.0 %
Test CRC 87F9B664
Copy CRC 87F9B664
Track not present in AccurateRip database
Copy OK
Track 4
Filename C:\my rips\ruben lister-simple-2010\04 Doce Horas.wav
Peak level 97.7 %
Extraction speed 2.7 X
Track quality 99.9 %
Test CRC 62A10854
Copy CRC 62A10854
Track not present in AccurateRip database
Copy OK
Track 5
Filename C:\my rips\ruben lister-simple-2010\05 Mililitro.wav
Peak level 97.7 %
Extraction speed 2.7 X
Track quality 99.9 %
Test CRC CA0C98D5
Copy CRC CA0C98D5
Track not present in AccurateRip database
Copy OK
Track 6
Filename C:\my rips\ruben lister-simple-2010\06 Someday.wav
Peak level 97.8 %
Extraction speed 2.9 X
Track quality 99.9 %
Test CRC 9CA336AE
Copy CRC 9CA336AE
Track not present in AccurateRip database
Copy OK
Track 7
Filename C:\my rips\ruben lister-simple-2010\07 Santa.wav
Peak level 97.7 %
Extraction speed 3.5 X
Track quality 100.0 %
Test CRC 18E91A34
Copy CRC 18E91A34
Track not present in AccurateRip database
Copy OK
Track 8
Filename C:\my rips\ruben lister-simple-2010\08 Lobo Sato.wav
Peak level 97.7 %
Extraction speed 3.8 X
Track quality 100.0 %
Test CRC 21F51CD4
Copy CRC 21F51CD4
Track not present in AccurateRip database
Copy OK
Track 9
Filename C:\my rips\ruben lister-simple-2010\09 Morena.wav
Peak level 97.7 %
Extraction speed 3.3 X
Track quality 99.9 %
Test CRC BDD76992
Copy CRC BDD76992
Track not present in AccurateRip database
Copy OK
Track 10
Filename C:\my rips\ruben lister-simple-2010\10 La Sabrosura.wav
Peak level 97.7 %
Extraction speed 3.7 X
Track quality 100.0 %
Test CRC 032EA5CF
Copy CRC 032EA5CF
Track not present in AccurateRip database
Copy OK
None of the tracks are present in the AccurateRip database
No errors occurred
End of status report
==== Log checksum E087E5C180432E45B9941FA01515B4FA70A4DD8F5FAB6610D667442C65B22D4F ====
 
.cue
REM GENRE Latin/Folk
REM DATE 2010
REM DISCID 8208A20A
REM COMMENT "ExactAudioCopy v1.0b3"
PERFORMER "Ruben Lester"
TITLE "Simple "
FILE "01 Carrusel.wav" WAVE
TRACK 01 AUDIO
TITLE "Carrusel"
PERFORMER "Ruben Lester "
INDEX 01 00:00:00
FILE "02 La Mananita.wav" WAVE
TRACK 02 AUDIO
TITLE "La Mananita"
PERFORMER "Ruben Lester "
INDEX 01 00:00:00
FILE "03 Gente.wav" WAVE
TRACK 03 AUDIO
TITLE "Gente"
PERFORMER "Ruben Lester "
INDEX 01 00:00:00
FILE "04 Doce Horas.wav" WAVE
TRACK 04 AUDIO
TITLE "Doce Horas"
PERFORMER "Ruben Lester "
INDEX 01 00:00:00
FILE "05 Mililitro.wav" WAVE
TRACK 05 AUDIO
TITLE "Mililitro"
PERFORMER "Ruben Lester "
INDEX 01 00:00:00
FILE "06 Someday.wav" WAVE
TRACK 06 AUDIO
TITLE "Someday"
PERFORMER "Ruben Lester "
INDEX 01 00:00:00
FILE "07 Santa.wav" WAVE
TRACK 07 AUDIO
TITLE "Santa"
PERFORMER "Ruben Lester "
INDEX 01 00:00:00
FILE "08 Lobo Sato.wav" WAVE
TRACK 08 AUDIO
TITLE "Lobo Sato"
PERFORMER "Ruben Lester "
INDEX 01 00:00:00
FILE "09 Morena.wav" WAVE
TRACK 09 AUDIO
TITLE "Morena"
PERFORMER "Ruben Lester "
INDEX 01 00:00:00
FILE "10 La Sabrosura.wav" WAVE
TRACK 10 AUDIO
TITLE "La Sabrosura"
PERFORMER "Ruben Lester "
INDEX 01 00:00:00
 
CD , matrix
 
back
15:57
314
Нет комментариев. Ваш будет первым!