Поиск

(Cuban Jazz) Arturo Sandoval - L.A. Meetings - 2001, APE (image+.cue), lossless

(Cuban Jazz) Arturo Sandoval - L.A. Meetings - 2001, APE (image+.cue), lossless
Треклист:
Arturo Sandoval - L.A. Meetings
Жанр: Cuban Jazz
Год выпуска диска: 2001
Производитель диска: USA
Аудио кодек: APE
Тип рипа: image+.cue
Битрейт аудио: lossless
Продолжительность: 41:18
Трэклист:
01. Rimsky (7:41)
02. Pete King's Heart (7:48)
03. L.A. Meetings (6:12)
04. Mi Lugar (6:06)
05. Libertad Carnaval (7:29)
06. Dindi (6:04)
Доп. информация:
 
Отчёт EAC
Exact Audio Copy V0.99 prebeta 4 from 23. January 2008
Отчёт EAC об извлечении, выполненном 22. марта 2009, 21:05
Arturo Sandoval / L.A. Meetings
Дисковод: _NEC DVD_RW ND-3550A Adapter: 0 ID: 0
Режим чтения : Достоверность
Использование точного потока : Да
Отключение кэша аудио : Да
Использование указателей C2 : Нет
Коррекция смещения при чтении : 48
Способность читать области Lead-in и Lead-out : Нет
Заполнение пропущенных сэмплов тишиной : Да
Удаление блоков с тишиной в начале и конце : Нет
При вычислениях CRC использовались нулевые сэмплы : Да
Интерфейс : Установленный внешний ASPI-интерфейс
Выходной формат : Внутренние WAV-операции
Формат сэмплов : 44.100 Гц; 16 бит; стерео
TOC извлечённого CD
Трек | Старт | Длительность | Начальный сектор | Конечный сектор
---------------------------------------------------------------------
1 | 0:00.00 | 7:40.61 | 0 | 34560
2 | 7:40.61 | 7:47.48 | 34561 | 69633
3 | 15:28.34 | 6:11.39 | 69634 | 97497
4 | 21:39.73 | 6:05.49 | 97498 | 124921
5 | 27:45.47 | 7:28.45 | 124922 | 158566
6 | 35:14.17 | 6:04.13 | 158567 | 185879
Характеристики диапазона извлечения и сообщения об ошибках
Выбранный диапазон
Имя файла ...\Arturo Sandoval - L.A. Meetings\Arturo Sandoval - L.A. Meetings.wav
Пиковый уровень 99.6 %
Качество диапазона 100.0 %
CRC копии 54628918
Копирование... OK
Ошибок не произошло
Конец отчёта
Download available for power users only.
05:26
239
Нет комментариев. Ваш будет первым!