Вы используете незарегистрированную версию компонента "Вкладки"!

Поиск

(Crossover / Modern Creative / Experimental) Don King (Mark Cunningham, Lucy Hamilton, Duncan Lindsay, Toni Nogueira, Arto Lindsay, Tony Maimore, Bill Perry) - One-Two Punch (Knockout) - 1997 [Atavistic ALP49CD], FLAC (tracks+.cue), lossless

(Crossover / Modern Creative / Experimental) Don King (Mark Cunningham, Lucy Hamilton, Duncan Lindsay, Toni Nogueira, Arto Lindsay, Tony Maimore, Bill Perry) - One-Two Punch (Knockout) - 1997 [Atavistic ALP49CD], FLAC (tracks+.cue), lossless
Треклист:
Don King - One-Two Punch (Knockout)
Жанр: Crossover / Modern Creative / Experimental
Страна-производитель диска: Canada
Год выпуска: 1997
Лейбл: Atavistic
Лейбл (номер) : ALP49CD
Продолжительность: 00:47:10
Аудио кодек: FLAC
Тип рипа: tracks + .cue
Битрейт аудио: lossless
Источник: собственный рип с оригинального Audio CD
Сканы полиграфии: да
Треклист:
1. Revelry (Remix)
2. Tanajura
3. The Don Goes On
4. Never Decide
5. Marco Polo
6. Flesh
7. Street of Dreams
8. Change Partners
9. Hatred and Kisses
10. Summertime
Доп. информация:
Musicians:
MARK CUNNINGHAM - trumpets, bass guitar, background vocal (#1-6); trumpet, delay samples (#7-10)
LUCY HAMILTON - bass clarinrt, guitar, vocal (#1-6); trumpet, delay samples (#7-10)
DUNCAN LINDSAY - trap drums, DX, synare, tumpani, agogo, hi-hat, snare (#1-6)
TONI NOGUEIRA - surdo, dumbek, syn (#1-6)
ARTO LINDSAY - snare, tom, DX, surdo (#1-5)
TONY MAIMORE - bass (#7-10)
BILL PERRY - drums (#7-10)
All Songs © Don King except Track 10 (Gershwin), Track 7 lyrics (S.Lewis) and Track 8 lyrics (I.Berlin)
© 1997 ATAVISTIC
Don King - One-Two Punch (Knockout) allmusic.com
Don King - One-Two Punch (Knockout) discogs.com
 
... back ...
 
EAC extraction logfile from 9. May 2011, 16:11
Exact Audio Copy V0.99 prebeta 4 from 23. January 2008
EAC extraction logfile from 9. May 2011, 16:11
Don King / One-Two Punch (Knockout)
Used drive : Optiarc DVD RW AD-7260S Adapter: 2 ID: 0
Read mode : Secure
Utilize accurate stream : Yes
Defeat audio cache : Yes
Make use of C2 pointers : No
Read offset correction : 48
Overread into Lead-In and Lead-Out : No
Fill up missing offset samples with silence : Yes
Delete leading and trailing silent blocks : No
Null samples used in CRC calculations : Yes
Used interface : Installed external ASPI interface
Gap handling : Appended to previous track
Used output format : User Defined Encoder
Selected bitrate : 128 kBit/s
Quality : High
Add ID3 tag : No
Command line compressor : D:\Program Files\Exact Audio Copy\Flac\flac.exe
Additional command line options : -8 -V -T "ARTIST=%a" -T "TITLE=%t" -T "ALBUM=%g" -T "DATE=%y" -T "TRACKNUMBER=%n" -T "GENRE=%m" -T "COMMENT=EAC FLAC -8" %s
TOC of the extracted CD
Track | Start | Length | Start sector | End sector
---------------------------------------------------------
1 | 0:00.00 | 12:03.52 | 0 | 54276
2 | 12:03.52 | 3:05.55 | 54277 | 68206
3 | 15:09.32 | 3:16.63 | 68207 | 82969
4 | 18:26.20 | 4:10.60 | 82970 | 101779
5 | 22:37.05 | 4:26.70 | 101780 | 121799
6 | 27:04.00 | 3:11.12 | 121800 | 136136
7 | 30:15.12 | 4:45.33 | 136137 | 157544
8 | 35:00.45 | 4:12.30 | 157545 | 176474
9 | 39:13.00 | 3:14.25 | 176475 | 191049
10 | 42:27.25 | 4:41.20 | 191050 | 212144
Track 1
Filename G:\TORRENTS.ru_Audio CD_rip by readab\Don King - One-Two Punch (Knockout) (1997)\Don King - One-Two Punch (Knockout) (1997)\01 - Revelry (Remix).wav
Pre-gap length 0:00:02.00
Peak level 66.5 %
Track quality 100.0 %
Test CRC 25A9511A
Copy CRC 25A9511A
Track not present in AccurateRip database
Copy OK
Track 2
Filename G:\TORRENTS.ru_Audio CD_rip by readab\Don King - One-Two Punch (Knockout) (1997)\Don King - One-Two Punch (Knockout) (1997)\02 - Tanajura.wav
Pre-gap length 0:00:01.15
Peak level 53.1 %
Track quality 100.0 %
Test CRC DCEFA3A3
Copy CRC DCEFA3A3
Track not present in AccurateRip database
Copy OK
Track 3
Filename G:\TORRENTS.ru_Audio CD_rip by readab\Don King - One-Two Punch (Knockout) (1997)\Don King - One-Two Punch (Knockout) (1997)\03 - The Don Goes On.wav
Peak level 45.5 %
Track quality 100.0 %
Test CRC CECB5C6C
Copy CRC CECB5C6C
Track not present in AccurateRip database
Copy OK
Track 4
Filename G:\TORRENTS.ru_Audio CD_rip by readab\Don King - One-Two Punch (Knockout) (1997)\Don King - One-Two Punch (Knockout) (1997)\04 - Never Decide.wav
Peak level 52.9 %
Track quality 100.0 %
Test CRC 0DB9858C
Copy CRC 0DB9858C
Track not present in AccurateRip database
Copy OK
Track 5
Filename G:\TORRENTS.ru_Audio CD_rip by readab\Don King - One-Two Punch (Knockout) (1997)\Don King - One-Two Punch (Knockout) (1997)\05 - Marco Polo.wav
Peak level 47.7 %
Track quality 100.0 %
Test CRC 6E9A0AAD
Copy CRC 6E9A0AAD
Track not present in AccurateRip database
Copy OK
Track 6
Filename G:\TORRENTS.ru_Audio CD_rip by readab\Don King - One-Two Punch (Knockout) (1997)\Don King - One-Two Punch (Knockout) (1997)\06 - Flesh.wav
Pre-gap length 0:00:01.18
Peak level 66.2 %
Track quality 100.0 %
Test CRC 09E894C7
Copy CRC 09E894C7
Track not present in AccurateRip database
Copy OK
Track 7
Filename G:\TORRENTS.ru_Audio CD_rip by readab\Don King - One-Two Punch (Knockout) (1997)\Don King - One-Two Punch (Knockout) (1997)\07 - Street of Dreams.wav
Pre-gap length 0:00:03.57
Peak level 51.3 %
Track quality 100.0 %
Test CRC 3FE48A5F
Copy CRC 3FE48A5F
Track not present in AccurateRip database
Copy OK
Track 8
Filename G:\TORRENTS.ru_Audio CD_rip by readab\Don King - One-Two Punch (Knockout) (1997)\Don King - One-Two Punch (Knockout) (1997)\08 - Change Partners.wav
Pre-gap length 0:00:02.68
Peak level 30.9 %
Track quality 100.0 %
Test CRC B1C150F0
Copy CRC B1C150F0
Track not present in AccurateRip database
Copy OK
Track 9
Filename G:\TORRENTS.ru_Audio CD_rip by readab\Don King - One-Two Punch (Knockout) (1997)\Don King - One-Two Punch (Knockout) (1997)\09 - Hatred and Kisses.wav
Pre-gap length 0:00:04.20
Peak level 41.8 %
Track quality 100.0 %
Test CRC 7CC6CC40
Copy CRC 7CC6CC40
Track not present in AccurateRip database
Copy OK
Track 10
Filename G:\TORRENTS.ru_Audio CD_rip by readab\Don King - One-Two Punch (Knockout) (1997)\Don King - One-Two Punch (Knockout) (1997)\10 - Summertime.wav
Pre-gap length 0:00:04.30
Peak level 29.3 %
Track quality 99.9 %
Test CRC 361D8A71
Copy CRC 361D8A71
Track not present in AccurateRip database
Copy OK
None of the tracks are present in the AccurateRip database
No errors occurred
End of status report
 
Содержание индексной карты (.CUE)
REM GENRE Crossover
REM DATE 1997
REM DISCID 7F0B0C0A
REM COMMENT "ExactAudioCopy v0.99pb4"
PERFORMER "Don King"
TITLE "One-Two Punch (Knockout)"
FILE "01 - Revelry (Remix).wav" WAVE
TRACK 01 AUDIO
TITLE "Revelry (Remix)"
PERFORMER "Don King"
INDEX 01 00:00:00
TRACK 02 AUDIO
TITLE "Tanajura"
PERFORMER "Don King"
INDEX 00 12:02:37
FILE "02 - Tanajura.wav" WAVE
INDEX 01 00:00:00
FILE "03 - The Don Goes On.wav" WAVE
TRACK 03 AUDIO
TITLE "The Don Goes On"
PERFORMER "Don King"
INDEX 01 00:00:00
FILE "04 - Never Decide.wav" WAVE
TRACK 04 AUDIO
TITLE "Never Decide"
PERFORMER "Don King"
INDEX 01 00:00:00
FILE "05 - Marco Polo.wav" WAVE
TRACK 05 AUDIO
TITLE "Marco Polo"
PERFORMER "Don King"
INDEX 01 00:00:00
TRACK 06 AUDIO
TITLE "Flesh"
PERFORMER "Don King"
INDEX 00 04:25:52
FILE "06 - Flesh.wav" WAVE
INDEX 01 00:00:00
TRACK 07 AUDIO
TITLE "Street of Dreams"
PERFORMER "Don King"
INDEX 00 03:07:30
FILE "07 - Street of Dreams.wav" WAVE
INDEX 01 00:00:00
TRACK 08 AUDIO
TITLE "Change Partners"
PERFORMER "Don King"
INDEX 00 04:42:40
FILE "08 - Change Partners.wav" WAVE
INDEX 01 00:00:00
TRACK 09 AUDIO
TITLE "Hatred and Kisses"
PERFORMER "Don King"
INDEX 00 04:08:10
FILE "09 - Hatred and Kisses.wav" WAVE
INDEX 01 00:00:00
TRACK 10 AUDIO
TITLE "Summertime"
PERFORMER "Don King"
INDEX 00 03:09:70
FILE "10 - Summertime.wav" WAVE
INDEX 01 00:00:00
Any questions -> support@pro-jazz.com. По всем вопросам пишите -> support@pro-jazz.com
09:21
176
Нет комментариев. Ваш будет первым!