Поиск

(Crossover Jazz, World Fusion) Airto Moreira - Seeds on the Ground - (1971) - 1990, FLAC (tracks+.cue), lossless

Треклист:
Airto Moreira / Seeds on the Ground
Жанр: Crossover Jazz, World Fusion
Страна-производитель диска: UK
Год издания диска:(1971) - 1990
Издатель (лейбл): One Way Records
Номер по каталогу: NEXCD 129
Страна: Brazil
Аудиокодек: FLAC (*.flac)
Тип рипа: tracks+.cue
Битрейт аудио: lossless
Продолжительность: 00:40:00
Источник (релизер): yorastus
Наличие сканов в содержимом раздачи: да
Треклист:
01. Andei (I Walked) [02:40]
02. O Sonho (Moon Dreams) [07:52]
03. Uri (Wind) [06:08]
04. Papo Furado (Jive Talking) [03:33]
05. Juntos (We Love) [03:22]
06. O Galho Da Roseira (The Branches Of The Rose Tree), Part 1 [07:58]
07. O Galho Da Roseira (The Branches Of The Rose Tree), Part 2 [08:24]
 
Лог создания рипа
Exact Audio Copy V1.0 beta 1 from 15. November 2010
EAC extraction logfile from 27. February 2011, 15:36
Airto Moreira / Seeds On The Ground - The Natural Sounds Of Airto
Used drive : TSSTcorpCD/DVDW SH-S162A Adapter: 2 ID: 0
Read mode : Secure
Utilize accurate stream : Yes
Defeat audio cache : Yes
Make use of C2 pointers : No
Read offset correction : 48
Overread into Lead-In and Lead-Out : No
Fill up missing offset samples with silence : Yes
Delete leading and trailing silent blocks : No
Null samples used in CRC calculations : Yes
Used interface : Native Win32 interface for Win NT & 2000
Gap handling : Appended to previous track
Used output format : User Defined Encoder
Selected bitrate : 1024 kBit/s
Quality : High
Add ID3 tag : No
Command line compressor : C:\Program Files (x86)\FLAC\flac.exe
Additional command line options : -8 -V -T "ARTIST=%a" -T "TITLE=%t" -T "ALBUM=%g" -T "DATE=%y" -T "TRACKNUMBER=%n" -T "TOTALTRACKS=%x" -T "GENRE=%m" -T "ALBUMARTIST=%v" -T "ALBUM ARTIST=%v" -T "COMMENT=EAC Secure Mode, Test & Copy, AccurateRip, FLAC -8" %s
TOC of the extracted CD
Track | Start | Length | Start sector | End sector
---------------------------------------------------------
1 | 0:00.00 | 2:44.40 | 0 | 12339
2 | 2:44.40 | 7:55.67 | 12340 | 48031
3 | 10:40.32 | 6:12.53 | 48032 | 75984
4 | 16:53.10 | 3:34.00 | 75985 | 92034
5 | 20:27.10 | 3:23.52 | 92035 | 107311
6 | 23:50.62 | 7:58.53 | 107312 | 143214
7 | 31:49.40 | 8:24.35 | 143215 | 181049
Track 1
Filename C:\Users\Fowler Sprigg\Music\UL 11\Airto Moreira - Seeds On The Ground (1971) [FLAC] (UK Sequel 1990)\01 - Andei (I Walked).wav
Pre-gap length 0:00:02.00
Peak level 85.7 %
Extraction speed 1.9 X
Track quality 100.0 %
Test CRC C785B3B1
Copy CRC C785B3B1
Track not present in AccurateRip database
Copy OK
Track 2
Filename C:\Users\Fowler Sprigg\Music\UL 11\Airto Moreira - Seeds On The Ground (1971) [FLAC] (UK Sequel 1990)\02 - O Sonho (Moon Dreams).wav
Pre-gap length 0:00:04.00
Peak level 85.2 %
Extraction speed 2.2 X
Track quality 100.0 %
Test CRC 07039094
Copy CRC 07039094
Track not present in AccurateRip database
Copy OK
Track 3
Filename C:\Users\Fowler Sprigg\Music\UL 11\Airto Moreira - Seeds On The Ground (1971) [FLAC] (UK Sequel 1990)\03 - Uri (Wind).wav
Pre-gap length 0:00:03.00
Peak level 71.5 %
Extraction speed 2.2 X
Track quality 100.0 %
Test CRC 12FBFB46
Copy CRC 12FBFB46
Track not present in AccurateRip database
Copy OK
Track 4
Filename C:\Users\Fowler Sprigg\Music\UL 11\Airto Moreira - Seeds On The Ground (1971) [FLAC] (UK Sequel 1990)\04 - Papo Furado (Jive Talking).wav
Pre-gap length 0:00:04.00
Peak level 91.5 %
Extraction speed 2.0 X
Track quality 100.0 %
Test CRC E0B1C382
Copy CRC E0B1C382
Track not present in AccurateRip database
Copy OK
Track 5
Filename C:\Users\Fowler Sprigg\Music\UL 11\Airto Moreira - Seeds On The Ground (1971) [FLAC] (UK Sequel 1990)\05 - Juntos (We Love).wav
Pre-gap length 0:00:01.00
Peak level 84.9 %
Extraction speed 2.0 X
Track quality 100.0 %
Test CRC 564F8F49
Copy CRC 564F8F49
Track not present in AccurateRip database
Copy OK
Track 6
Filename C:\Users\Fowler Sprigg\Music\UL 11\Airto Moreira - Seeds On The Ground (1971) [FLAC] (UK Sequel 1990)\06 - O Galho Da Roseira (The Branches Of The Rose Tree), Part 1.wav
Pre-gap length 0:00:01.00
Peak level 96.0 %
Extraction speed 2.2 X
Track quality 100.0 %
Test CRC 2F1C3F06
Copy CRC 2F1C3F06
Track not present in AccurateRip database
Copy OK
Track 7
Filename C:\Users\Fowler Sprigg\Music\UL 11\Airto Moreira - Seeds On The Ground (1971) [FLAC] (UK Sequel 1990)\07 - O Galho Da Roseira (The Branches Of The Rose Tree), Part 2.wav
Peak level 98.1 %
Extraction speed 2.2 X
Track quality 100.0 %
Test CRC 9268CC59
Copy CRC 9268CC59
Track not present in AccurateRip database
Copy OK
None of the tracks are present in the AccurateRip database
No errors occurred
End of status report
==== Log checksum 6B4AAECF7835E032E641397B456ADB7BC61C904ABC0950335DD64996887D5334 ====
 
Содержание индексной карты (.CUE)
REM GENRE Jazz
REM DATE 1971
REM DISCID 46096E07
REM COMMENT "ExactAudioCopy v1.0b1"
PERFORMER "Airto Moreira"
TITLE "Seeds On The Ground - The Natural Sounds Of Airto"
FILE "01 - Andei (I Walked).wav" WAVE
TRACK 01 AUDIO
TITLE "Andei (I Walked)"
PERFORMER "Airto Moreira"
INDEX 01 00:00:00
TRACK 02 AUDIO
TITLE "O Sonho (Moon Dreams)"
PERFORMER "Airto Moreira"
INDEX 00 02:40:40
FILE "02 - O Sonho (Moon Dreams).wav" WAVE
INDEX 01 00:00:00
TRACK 03 AUDIO
TITLE "Uri (Wind)"
PERFORMER "Airto Moreira"
INDEX 00 07:52:67
FILE "03 - Uri (Wind).wav" WAVE
INDEX 01 00:00:00
TRACK 04 AUDIO
TITLE "Papo Furado (Jive Talking)"
PERFORMER "Airto Moreira"
INDEX 00 06:08:53
FILE "04 - Papo Furado (Jive Talking).wav" WAVE
INDEX 01 00:00:00
TRACK 05 AUDIO
TITLE "Juntos (We Love)"
PERFORMER "Airto Moreira"
INDEX 00 03:33:00
FILE "05 - Juntos (We Love).wav" WAVE
INDEX 01 00:00:00
TRACK 06 AUDIO
TITLE "O Galho Da Roseira (The Branches Of The Rose Tree), Part 1"
PERFORMER "Airto Moreira"
INDEX 00 03:22:52
FILE "06 - O Galho Da Roseira (The Branches Of The Rose Tree), Part 1.wav" WAVE
INDEX 01 00:00:00
FILE "07 - O Galho Da Roseira (The Branches Of The Rose Tree), Part 2.wav" WAVE
TRACK 07 AUDIO
TITLE "O Galho Da Roseira (The Branches Of The Rose Tree), Part 2"
PERFORMER "Airto Moreira"
INDEX 01 00:00:00
 
Состав
Accordion - Sivuca
Bass - Hermeto Pascoal , Ron Carter
Berimbau - Airto Moreira
Cello - Ron Carter
Drums - Airto Moreira
Flute - Hermeto Pascoal
Keyboards - Hermeto Pascoal
Organ - Severino De Oliveira*
Percussion - Airto Moreira , Dom Um Romao
Performer [Japanese Sapho] - Hermeto Pascoal
Piano - Hermeto Pascoal
Viola - Severino De Oliveira*
Vocals - Airto Moreira , Flora Purim
По всем вопросам пишите личное сообщение пользователю M0p94ok.
23:09
470
Нет комментариев. Ваш будет первым!