Поиск

(Crossover Jazz, Smooth Jazz, Fusion) Larry Carlton - Kid Gloves - 1992 [GRP 96832], WAVPack (image+.cue), lossless

(Crossover Jazz, Smooth Jazz, Fusion) Larry Carlton - Kid Gloves - 1992 [GRP 96832], WAVPack (image+.cue), lossless
Треклист:
Larry Carlton - Kid Gloves
Жанр: Crossover Jazz, Smooth Jazz, Fusion
Год выпуска диска: 1992
Производитель диска: GRP Records, Inc. (GRP 96832)
Аудио кодек: WAVPack
Тип рипа: image+.cue
Битрейт аудио: lossless
Продолжительность: 49:22
Источник: Собственные рипы
Треклист:
1. Kid Gloves - 4:07
2. The Preacher - 5:50
3. Michele's Whistle - 4:47
4. Oui Oui Si - 6:15
5. Heart to Heart - 4:22
6. Just My Imagination (Running Away With Me) - 5:32
7. Where Be Mosada? - 6:01
8. Farm Jazz - 3:41
9. Terry T. - 5:11
10. If I Could I Would - 2:17
Доп. информация:
МУЗЫКАНТЫ:
Larry Carlton - Guitar
Kirk Whalum - Saxophone
Matt Rollings - Keyboards
Abraham Laboriel - Bass
Eric Pershing - Synth & Drum Programming
John Ferraro - Drums
Michael Fisher - Percussion
Alex Acuña - Percussion
 
Отчёт ЕАС
Exact Audio Copy V0.99 prebeta 4 from 23. January 2008
EAC extraction logfile from 20. February 2009, 19:29
Larry Carlton / Kid Gloves
Used drive : HL-DT-STDVDRAM GSA-4167B Adapter: 0 ID: 2
Read mode : Secure
Utilize accurate stream : Yes
Defeat audio cache : Yes
Make use of C2 pointers : No
Read offset correction : 667
Overread into Lead-In and Lead-Out : No
Fill up missing offset samples with silence : Yes
Delete leading and trailing silent blocks : No
Null samples used in CRC calculations : Yes
Used interface : Installed external ASPI interface
Used output format : User Defined Encoder
Selected bitrate : 128 kBit/s
Quality : High
Add ID3 tag : No
Command line compressor : G:\Program Files\Exact Audio Copy\wavpack.exe
Additional command line options : -hm -w "Title=%t" -w "Artist=%a" -w "Year=%y" -w "Genre=%m" %s %d
TOC of the extracted CD
Track | Start | Length | Start sector | End sector
---------------------------------------------------------
1 | 0:00.00 | 4:09.57 | 0 | 18731
2 | 4:09.57 | 5:51.55 | 18732 | 45111
3 | 10:01.37 | 4:49.05 | 45112 | 66791
4 | 14:50.42 | 6:18.13 | 66792 | 95154
5 | 21:08.55 | 4:24.15 | 95155 | 114969
6 | 25:32.70 | 5:33.70 | 114970 | 140014
7 | 31:06.65 | 6:02.67 | 140015 | 167231
8 | 37:09.57 | 4:43.18 | 167232 | 188474
9 | 41:53.00 | 5:12.02 | 188475 | 211876
10 | 47:05.02 | 2:17.23 | 211877 | 222174
Range status and errors
Selected range
Filename F:\WAV\Larry Carlton - Kid Gloves.wav
Peak level 97.4 %
Range quality 100.0 %
Test CRC 65220F75
Copy CRC 65220F75
Copy OK
No errors occurred
AccurateRip summary
Track 1 accurately ripped (confidence 2) [77FFDFF5]
Track 2 accurately ripped (confidence 2) [8AB1D696]
Track 3 accurately ripped (confidence 2) [E333F679]
Track 4 accurately ripped (confidence 2) [C9478727]
Track 5 accurately ripped (confidence 3) [083EC01B]
Track 6 accurately ripped (confidence 2) [006FF317]
Track 7 accurately ripped (confidence 2) [94ED7469]
Track 8 accurately ripped (confidence 2) [544C115E]
Track 9 accurately ripped (confidence 2) [215EB5B9]
Track 10 accurately ripped (confidence 2) [AB71D8D4]
All tracks accurately ripped
End of status report
Прошу прощения за качество полиграфии. Её мал-мал покоробило когда диск "тонул".
По всем вопросам пишите личное сообщение пользователю M0p94ok.
16:13
379
Нет комментариев. Ваш будет первым!