Вы используете незарегистрированную версию компонента "Вкладки"!

Поиск

(Crossover Jazz) Michel Legrand - by Michel Legrand - 2002, FLAC (image+.cue), lossless

(Crossover Jazz) Michel Legrand - by Michel Legrand - 2002, FLAC (image+.cue), lossless
Треклист:
Michel Legrand - by Michel Legrand
Жанр: Crossover Jazz
Год выпуска диска: 2002
Аудио кодек: FLAC
Тип рипа: image+.cue
Битрейт аудио: lossless
Продолжительность: 1:10:02
Трэклист:
1. I will wait for you [Les Parapluies de Cherbourg]
2. The Windmills of your Mind (from "The Thomas Crown Affair")
3. The Summer knows [Summer of 42]
4. How do you keep the music playing? (from "Best Friends")
5. Watch what happens [Les Parapluies de Cherbourg]
6. What are you doing the rest of your life? (The Happy Ending)
7. His eyes, her eyes (from "The Thomas Crown Affair")
8. The hands of time (from "Brian's Song")
9. Ordinary man (from "Le Passe-muraille")
10. Summer me, Winter me (from "The Picasso Summer")
11. You must believe in Spring (from "Les demoiselles de Rochefort")
12. Once Upon A Summertime
13. L'Amour fantôme (from "L'Amour fantôme")
14. Yentl (music from the film)
Доп. информация:
 
EAC log
Exact Audio Copy V0.99 prebeta 5 from 4. May 2009
EAC extraction logfile from 25. July 2009, 18:15
MICHEL LEGRAND / by MICHEL LEGRAND
Used drive : _NEC DVD_RW ND-3500AG Adapter: 1 ID: 1
Read mode : Secure
Utilize accurate stream : Yes
Defeat audio cache : Yes
Make use of C2 pointers : No
Read offset correction : 48
Overread into Lead-In and Lead-Out : No
Fill up missing offset samples with silence : Yes
Delete leading and trailing silent blocks : No
Null samples used in CRC calculations : Yes
Used interface : Native Win32 interface for Win NT & 2000
Used output format : User Defined Encoder
Selected bitrate : 128 kBit/s
Quality : High
Add ID3 tag : No
Command line compressor : C:\Program Files (x86)\Exact Audio Copy\Flac\flac.exe
Additional command line options : -5 -V -T "ARTIST=%a" -T "TITLE=%t" -T "ALBUM=%g" -T "DATE=%y" -T "TRACKNUMBER=%n" -T "GENRE=%m" -T "COMMENT=EAC FLAC" %s
TOC of the extracted CD
Track | Start | Length | Start sector | End sector
---------------------------------------------------------
1 | 0:00.00 | 5:41.58 | 0 | 25632
2 | 5:41.58 | 5:39.74 | 25633 | 51131
3 | 11:21.57 | 4:51.36 | 51132 | 72992
4 | 16:13.18 | 3:55.02 | 72993 | 90619
5 | 20:08.20 | 3:54.03 | 90620 | 108172
6 | 24:02.23 | 6:06.42 | 108173 | 135664
7 | 30:08.65 | 5:35.25 | 135665 | 160814
8 | 35:44.15 | 3:30.01 | 160815 | 176565
9 | 39:14.16 | 3:51.55 | 176566 | 193945
10 | 43:05.71 | 4:37.07 | 193946 | 214727
11 | 47:43.03 | 6:14.68 | 214728 | 242845
12 | 53:57.71 | 5:55.69 | 242846 | 269539
13 | 59:53.65 | 4:13.00 | 269540 | 288514
14 | 64:06.65 | 5:55.25 | 288515 | 315164
Range status and errors
Selected range
Filename G:\Torrents\MICHEL LEGRAND - by MICHEL LEGRAND\MICHEL LEGRAND - by MICHEL LEGRAND.wav
Peak level 99.9 %
Range quality 100.0 %
Copy CRC 09226871
Copy OK
No errors occurred
AccurateRip summary
Track 1 accurately ripped (confidence 2) [3A296AE4]
Track 2 accurately ripped (confidence 2) [F271C3CA]
Track 3 accurately ripped (confidence 2) [770E41AC]
Track 4 accurately ripped (confidence 2) [B00F57A1]
Track 5 accurately ripped (confidence 2) [7273A6E4]
Track 6 accurately ripped (confidence 2) [96437ABC]
Track 7 not present in database
Track 8 accurately ripped (confidence 2) [D830C25C]
Track 9 accurately ripped (confidence 2) [CAC30071]
Track 10 accurately ripped (confidence 2) [1881A539]
Track 11 accurately ripped (confidence 2) [1AC82896]
Track 12 accurately ripped (confidence 2) [00F5334B]
Track 13 accurately ripped (confidence 2) [D6D8C757]
Track 14 accurately ripped (confidence 2) [D3E28C58]
13 track(s) accurately ripped
1 track(s) not present in the AccurateRip database
Some tracks could not be verified as accurate
End of status report
Any questions - support@pro-jazz.com. Есть вопросы - support@pro-jazz.com
10:11
265
Нет комментариев. Ваш будет первым!