Вы используете незарегистрированную версию компонента "Вкладки"!

Поиск

(Crossover Jazz, Legrand-Jazz, Cool, Easy Listening) Michel Legrand - Musicales Comedies (2CD + Book) {naive K1663, Italy} - 2009, FLAC (image+.cue) lossless

Треклист:
Michel Legrand - Musicales Comedies (2CD + Book)
Жанр: Crossover Jazz, Legrand-Jazz, Cool, Easy Listening
Страна-производитель диска: Italy
Год издания диска: 2009
Издатель (лейбл): naive ( naïve )
Номер по каталогу: K1663
Аудио кодек: FLAC (*.flac)
Тип рипа: image+.cue
Битрейт аудио: lossless
Продолжительность: 01:09:38 + 01:09:00
Источник (релизер): собственный рип с оригинальных дисков (Darkman)
Наличие сканов в содержимом раздачи: да (полный набор сканов, 300 dpi)
Треклист:
CD1:
#01] Les Parapluies de Cherbourg (The Umbrellas of Cherbourg)
#02] Un Ete 42 (Summer of 42)
#03] Le Messager (The Go-Between)
#04] Yentl (Yentl)
CD2:
#01] Porgy and Bess (Porgy and Bess)
#02] West Side Story (West Side Story)
#03] Peau d'Ane (Donkey Skin)
#04] L'opera de Quat'sous (The Threepenny Opera)
#05] Le Passe Muraille (Le Passe Muraille)
Доп. информация:
Престижный Лэйбл...
Качество звука - отличное!
В раздачу включён полный качественный комплект сканов Книги (где то на страниц 40) с отличными фото ...
В этой Книге, типа, и наxодились 2CD раздачи...
 
Лог создания рипа (EAC Log - CD1)
Exact Audio Copy V0.99 prebeta 5 from 4. May 2009
EAC extraction logfile from 15. January 2011, 1:33
Michel Legrand / Musicales Comedies (CD1)
Used drive : HL-DT-STDVD-RAM GSA-H54N Adapter: 0 ID: 0
Read mode : Secure
Utilize accurate stream : Yes
Defeat audio cache : Yes
Make use of C2 pointers : No
Read offset correction : 102
Overread into Lead-In and Lead-Out : No
Fill up missing offset samples with silence : Yes
Delete leading and trailing silent blocks : No
Null samples used in CRC calculations : Yes
Used interface : Native Win32 interface for Win NT & 2000
Used output format : User Defined Encoder
Selected bitrate : 320 kBit/s
Quality : High
Add ID3 tag : No
Command line compressor : C:\Program Files\Exact Audio Copy\Flac\flac.exe
Additional command line options : -8 -V %s
TOC of the extracted CD
Track | Start | Length | Start sector | End sector
---------------------------------------------------------
1 | 0:00.32 | 31:26.35 | 32 | 141516
2 | 31:26.67 | 4:44.73 | 141517 | 162889
3 | 36:11.65 | 19:21.67 | 162890 | 250031
4 | 55:33.57 | 14:04.53 | 250032 | 313384
Range status and errors
Selected range
Filename C:\EAC\Michel Legrand - Musicales Comedies (CD1).wav
Peak level 97.7 %
Range quality 100.0 %
Test CRC 2BF4CA6E
Copy CRC 2BF4CA6E
Copy OK
No errors occurred
AccurateRip summary
Track 1 accurately ripped (confidence 2) [0687850E]
Track 2 accurately ripped (confidence 2) [3F78A03E]
Track 3 accurately ripped (confidence 2) [162F5C87]
Track 4 accurately ripped (confidence 2) [E81E6DDC]
All tracks accurately ripped
End of status report
 
Содержание индексной карты (.CUE) - CD1
REM GENRE Classical
REM DATE 2009
REM DISCID 36105204
REM COMMENT "ExactAudioCopy v0.99pb5"
PERFORMER "Michel Legrand"
TITLE "Musicales Comedies (CD1)"
FILE "Michel Legrand - Musicales Comedies (CD1).flac" WAVE
TRACK 01 AUDIO
TITLE "Les Parapluies de Cherbourg (The Umbrellas of Cherbourg)"
PERFORMER "Michel Legrand"
INDEX 00 00:00:00
INDEX 01 00:00:32
TRACK 02 AUDIO
TITLE "Un Ete 42 (Summer of 42)"
PERFORMER "Michel Legrand"
INDEX 01 31:26:67
TRACK 03 AUDIO
TITLE "Le Messager (The Go-Between)"
PERFORMER "Michel Legrand"
INDEX 01 36:11:65
TRACK 04 AUDIO
TITLE "Yentl (Yentl)"
PERFORMER "Michel Legrand"
INDEX 01 55:33:57
 
Лог создания рипа (EAC Log - CD2)
Exact Audio Copy V0.99 prebeta 5 from 4. May 2009
EAC extraction logfile from 15. January 2011, 5:57
Michel Legrand / Musicales Comedies (CD2)
Used drive : HL-DT-STDVD-RAM GSA-H54N Adapter: 0 ID: 0
Read mode : Secure
Utilize accurate stream : Yes
Defeat audio cache : Yes
Make use of C2 pointers : No
Read offset correction : 102
Overread into Lead-In and Lead-Out : No
Fill up missing offset samples with silence : Yes
Delete leading and trailing silent blocks : No
Null samples used in CRC calculations : Yes
Used interface : Native Win32 interface for Win NT & 2000
Used output format : User Defined Encoder
Selected bitrate : 320 kBit/s
Quality : High
Add ID3 tag : No
Command line compressor : C:\Program Files\Exact Audio Copy\Flac\flac.exe
Additional command line options : -8 -V %s
TOC of the extracted CD
Track | Start | Length | Start sector | End sector
---------------------------------------------------------
1 | 0:00.00 | 20:18.46 | 0 | 91395
2 | 20:18.46 | 16:32.57 | 91396 | 165852
3 | 36:51.28 | 9:02.47 | 165853 | 206549
4 | 45:54.00 | 9:52.67 | 206550 | 251016
5 | 55:46.67 | 13:13.09 | 251017 | 310500
Range status and errors
Selected range
Filename C:\EAC\Michel Legrand - Musicales Comedies (CD2).wav
Peak level 75.1 %
Range quality 100.0 %
Test CRC C549CD79
Copy CRC C549CD79
Copy OK
No errors occurred
AccurateRip summary
Track 1 accurately ripped (confidence 2) [A7095F8B]
Track 2 accurately ripped (confidence 2) [ED76367A]
Track 3 accurately ripped (confidence 2) [0B050DA1]
Track 4 accurately ripped (confidence 2) [4E22E266]
Track 5 accurately ripped (confidence 2) [34FB0AC8]
All tracks accurately ripped
End of status report
 
Содержание индексной карты (.CUE) - CD2
REM GENRE Soundtrack
REM DATE 2009
REM DISCID 35102C05
REM COMMENT "ExactAudioCopy v0.99pb5"
PERFORMER "Michel Legrand"
TITLE "Musicales Comedies (CD2)"
FILE "Michel Legrand - Musicales Comedies (CD2).flac" WAVE
TRACK 01 AUDIO
TITLE "Porgy and Bess (Porgy and Bess)"
PERFORMER "Michel Legrand"
INDEX 01 00:00:00
TRACK 02 AUDIO
TITLE "West Side Story (West Side Story)"
PERFORMER "Michel Legrand"
INDEX 01 20:18:46
TRACK 03 AUDIO
TITLE "Peau d'Ane (Donkey Skin)"
PERFORMER "Michel Legrand"
INDEX 01 36:51:28
TRACK 04 AUDIO
TITLE "L'opera de Quat'sous (The Threepenny Opera)"
PERFORMER "Michel Legrand"
INDEX 01 45:54:00
TRACK 05 AUDIO
TITLE "Le Passe Muraille (Le Passe Muraille)"
PERFORMER "Michel Legrand"
INDEX 01 55:46:67
Any questions - support@pro-jazz.com. Есть вопросы - support@pro-jazz.com
18:35
272
Нет комментариев. Ваш будет первым!