Вы используете незарегистрированную версию компонента "Вкладки"!

Поиск

(Crossover Jazz / Latin Jazz / World Fusion) Airto Moreira - Fingers (CTI Records 40th Anniversary Edition) - 1973 / 2011, FLAC (tracks+.cue), lossless

(Crossover Jazz / Latin Jazz / World Fusion) Airto Moreira - Fingers (CTI Records 40th Anniversary Edition) - 1973 / 2011, FLAC (tracks+.cue), lossless
Треклист:
Airto Moreira / Fingers (CTI Records 40th Anniversary Edition )
Жанр: Crossover Jazz / Latin Jazz / World Fusion
Год издания диска: 1973 / 2011
Издатель (лейбл): CTI / SONY MASTERWORKS
Номер по каталогу: 88697 93203 2
Аудиокодек: FLAC (*.flac)
Тип рипа: tracks+.cue
Битрейт аудио: lossless
Продолжительность: 35:26
Источник (релизер): Источник - Вата, релизер - udin
Наличие сканов в содержимом раздачи: нет
Треклист:
01. Fingers (El Rada)
02. Romance Of Death
03. Merry-Go-Round
04. Wind Chant
05. Parana
06. San Francisco River
07. Tombo in 7/4
 
Лог создания рипа
X Lossless Decoder version 20110821 (136.1)
XLD extraction logfile from 2011-09-06 18:28:04 +0000
Airto Moreira / Fingers
Used drive : TSSTcorp CD/DVDW SH-S182M (revision SB02)
Ripper mode : XLD Secure Ripper
Disable audio cache : OK for the drive with a cache less than 1375KiB
Make use of C2 pointers : NO
Read offset correction : 6
Max retry count : 100
Gap status : Analyzed, Appended (except HTOA)
TOC of the extracted CD
Track | Start | Length | Start sector | End sector
---------------------------------------------------------
1 | 00:00:14 | 04:33:32 | 14 | 20520
2 | 04:33:46 | 05:36:57 | 20521 | 45777
3 | 10:10:28 | 02:47:15 | 45778 | 58317
4 | 12:57:43 | 05:50:62 | 58318 | 84629
5 | 18:48:30 | 06:03:27 | 84630 | 111881
6 | 24:51:57 | 04:11:40 | 111882 | 130746
7 | 29:03:22 | 06:22:49 | 130747 | 159445
AccurateRip Summary
Disc not found in AccurateRip DB.
All Tracks
Album gain : -3.94 dB
Peak : 0.979797
Statistics
Read error : 0
Jitter error (maybe fixed) : 0
Retry sector count : 0
Damaged sector count : 0
Track 01
Filename : /Users/nicholasdubriwny/Desktop/Music/Airto Moreira - Fingers (2011) [WAV]/01 Fingers (El Rada).wav
/Users/nicholasdubriwny/Desktop/Music/Airto Moreira - Fingers (2011) [LAME V2]/01 Fingers (El Rada).mp3
/Users/nicholasdubriwny/Desktop/Music/Airto Moreira - Fingers (2011) [FLAC (level 8)]/01 Fingers (El Rada).flac
Pre-gap length : 00:02:14
Track gain : -3.27 dB
Peak : 0.954437
CRC32 hash (test run) : 9C54BB7E
CRC32 hash : 9C54BB7E
CRC32 hash (skip zero) : DEAAD134
AccurateRip signature : 92441C1A
->Track not present in AccurateRip database.
Statistics
Read error : 0
Jitter error (maybe fixed) : 0
Retry sector count : 0
Damaged sector count : 0
Track 02
Filename : /Users/nicholasdubriwny/Desktop/Music/Airto Moreira - Fingers (2011) [WAV]/02 Romance Of Death.wav
/Users/nicholasdubriwny/Desktop/Music/Airto Moreira - Fingers (2011) [LAME V2]/02 Romance Of Death.mp3
/Users/nicholasdubriwny/Desktop/Music/Airto Moreira - Fingers (2011) [FLAC (level 8)]/02 Romance Of Death.flac
Pre-gap length : 00:02:58
Track gain : -4.33 dB
Peak : 0.879456
CRC32 hash (test run) : 2C521627
CRC32 hash : 2C521627
CRC32 hash (skip zero) : 37C752C2
AccurateRip signature : 3EC9B160
->Track not present in AccurateRip database.
Statistics
Read error : 0
Jitter error (maybe fixed) : 0
Retry sector count : 0
Damaged sector count : 0
Track 03
Filename : /Users/nicholasdubriwny/Desktop/Music/Airto Moreira - Fingers (2011) [WAV]/03 Merry-Go-Round.wav
/Users/nicholasdubriwny/Desktop/Music/Airto Moreira - Fingers (2011) [LAME V2]/03 Merry-Go-Round.mp3
/Users/nicholasdubriwny/Desktop/Music/Airto Moreira - Fingers (2011) [FLAC (level 8)]/03 Merry-Go-Round.flac
Pre-gap length : 00:02:41
Track gain : -0.74 dB
Peak : 0.812592
CRC32 hash (test run) : ECEC3B42
CRC32 hash : ECEC3B42
CRC32 hash (skip zero) : BA03711D
AccurateRip signature : 6B6E1513
->Track not present in AccurateRip database.
Statistics
Read error : 0
Jitter error (maybe fixed) : 0
Retry sector count : 0
Damaged sector count : 0
Track 04
Filename : /Users/nicholasdubriwny/Desktop/Music/Airto Moreira - Fingers (2011) [WAV]/04 Wind Chant.wav
/Users/nicholasdubriwny/Desktop/Music/Airto Moreira - Fingers (2011) [LAME V2]/04 Wind Chant.mp3
/Users/nicholasdubriwny/Desktop/Music/Airto Moreira - Fingers (2011) [FLAC (level 8)]/04 Wind Chant.flac
Pre-gap length : 00:02:53
Track gain : -4.32 dB
Peak : 0.837341
CRC32 hash (test run) : F21FBD9D
CRC32 hash : F21FBD9D
CRC32 hash (skip zero) : E6BEE3CE
AccurateRip signature : 191A0352
->Track not present in AccurateRip database.
Statistics
Read error : 0
Jitter error (maybe fixed) : 0
Retry sector count : 0
Damaged sector count : 0
Track 05
Filename : /Users/nicholasdubriwny/Desktop/Music/Airto Moreira - Fingers (2011) [WAV]/05 Parana.wav
/Users/nicholasdubriwny/Desktop/Music/Airto Moreira - Fingers (2011) [LAME V2]/05 Parana.mp3
/Users/nicholasdubriwny/Desktop/Music/Airto Moreira - Fingers (2011) [FLAC (level 8)]/05 Parana.flac
Pre-gap length : 00:02:56
Track gain : -4.76 dB
Peak : 0.979797
CRC32 hash (test run) : 66DE463B
CRC32 hash : 66DE463B
CRC32 hash (skip zero) : 61FFB729
AccurateRip signature : DD753A0E
->Track not present in AccurateRip database.
Statistics
Read error : 0
Jitter error (maybe fixed) : 0
Retry sector count : 0
Damaged sector count : 0
Track 06
Filename : /Users/nicholasdubriwny/Desktop/Music/Airto Moreira - Fingers (2011) [WAV]/06 San Francisco River.wav
/Users/nicholasdubriwny/Desktop/Music/Airto Moreira - Fingers (2011) [LAME V2]/06 San Francisco River.mp3
/Users/nicholasdubriwny/Desktop/Music/Airto Moreira - Fingers (2011) [FLAC (level 8)]/06 San Francisco River.flac
Pre-gap length : 00:02:23
Track gain : -2.46 dB
Peak : 0.760773
CRC32 hash (test run) : 45D3E464
CRC32 hash : 45D3E464
CRC32 hash (skip zero) : 4C1592F5
AccurateRip signature : 97FAFAEE
->Track not present in AccurateRip database.
Statistics
Read error : 0
Jitter error (maybe fixed) : 0
Retry sector count : 0
Damaged sector count : 0
Track 07
Filename : /Users/nicholasdubriwny/Desktop/Music/Airto Moreira - Fingers (2011) [WAV]/07 Tombo In 7/4.wav
/Users/nicholasdubriwny/Desktop/Music/Airto Moreira - Fingers (2011) [LAME V2]/07 Tombo In 7/4.mp3
/Users/nicholasdubriwny/Desktop/Music/Airto Moreira - Fingers (2011) [FLAC (level 8)]/07 Tombo In 7/4.flac
Pre-gap length : 00:02:74
Track gain : -3.67 dB
Peak : 0.933350
CRC32 hash (test run) : F95BC155
CRC32 hash : F95BC155
CRC32 hash (skip zero) : 1CF6A218
AccurateRip signature : DC0B4FEE
->Track not present in AccurateRip database.
Statistics
Read error : 0
Jitter error (maybe fixed) : 0
Retry sector count : 0
Damaged sector count : 0
No errors occurred
End of status report
 
Содержание индексной карты (.CUE)
TITLE "Fingers"
PERFORMER "Airto Moreira"
REM GENRE "Jazz"
REM DATE "2011"
REM DISCNUMBER 1
REM TOTALDISCS 1
REM DISCID 57084D07
REM REPLAYGAIN_ALBUM_GAIN -3.94 dB
REM REPLAYGAIN_ALBUM_PEAK 0.979797
FILE "01 Fingers (El Rada).wav" WAVE
TRACK 01 AUDIO
TITLE "Fingers (El Rada)"
REM ISRC H2KM11103315
REM REPLAYGAIN_TRACK_GAIN -3.27 dB
REM REPLAYGAIN_TRACK_PEAK 0.954437
PREGAP 00:00:14
INDEX 01 00:00:00
TRACK 02 AUDIO
TITLE "Romance Of Death"
REM ISRC H2KM10114545
REM REPLAYGAIN_TRACK_GAIN -4.33 dB
REM REPLAYGAIN_TRACK_PEAK 0.879456
INDEX 00 04:30:49
FILE "02 Romance Of Death.wav" WAVE
INDEX 01 00:00:00
TRACK 03 AUDIO
TITLE "Merry-Go-Round"
REM ISRC H2KM11103316
REM REPLAYGAIN_TRACK_GAIN -0.74 dB
REM REPLAYGAIN_TRACK_PEAK 0.812592
INDEX 00 05:34:16
FILE "03 Merry-Go-Round.wav" WAVE
INDEX 01 00:00:00
TRACK 04 AUDIO
TITLE "Wind Chant"
REM ISRC H2KM11103317
REM REPLAYGAIN_TRACK_GAIN -4.32 dB
REM REPLAYGAIN_TRACK_PEAK 0.837341
INDEX 00 02:44:37
FILE "04 Wind Chant.wav" WAVE
INDEX 01 00:00:00
TRACK 05 AUDIO
TITLE "Parana"
REM ISRC H2KM11103318
REM REPLAYGAIN_TRACK_GAIN -4.76 dB
REM REPLAYGAIN_TRACK_PEAK 0.979797
INDEX 00 05:48:06
FILE "05 Parana.wav" WAVE
INDEX 01 00:00:00
TRACK 06 AUDIO
TITLE "San Francisco River"
REM ISRC H2KM10114546
REM REPLAYGAIN_TRACK_GAIN -2.46 dB
REM REPLAYGAIN_TRACK_PEAK 0.760773
INDEX 00 06:01:04
FILE "06 San Francisco River.wav" WAVE
INDEX 01 00:00:00
TRACK 07 AUDIO
TITLE "Tombo In 7/4"
REM ISRC H2KM10114548
REM REPLAYGAIN_TRACK_GAIN -3.67 dB
REM REPLAYGAIN_TRACK_PEAK 0.933350
INDEX 00 04:08:41
FILE "07 Tombo In 7_4.wav" WAVE
INDEX 01 00:00:00
 
Лог проверки качества
AUDIOCHECKER v2.0 beta (build 457) - by Dester - opdester@freemail.hu
~~~~~~~~~~~~~~~~~~~~~~~~~~~~~~~~~~
-=== DO NOT EDIT THIS FILE! ===-
Path: ...\Airto Moreira - Fingers (CTI Records 40th Anniversary Edition )
1 -=- 01 Fingers (El Rada).flac -=- CDDA (99%)
2 -=- 02 Romance Of Death.flac -=- CDDA (100%)
3 -=- 03 Merry-Go-Round.flac -=- CDDA (100%)
4 -=- 04 Wind Chant.flac -=- CDDA (100%)
5 -=- 05 Parana.flac -=- CDDA (100%)
6 -=- 06 San Francisco River.flac -=- CDDA (100%)
7 -=- 07 Tombo In 7_4.flac -=- CDDA (100%)
Summary 99,86% CDDA
164114612
 
Об альбоме (сборнике)
The 1970s were banner years for Airto Moreira--not only because of his association with Chick Corea's Return to Forever and his work on wife Flora Purim's Milestone dates, but also, because of the generally superb work he did under Creed Taylor's supervision at CTI from 1972-74. One of the five-star gems that the Brazilian percussionist recorded for CTI was Fingers, which employs Purim on percussion and vocals, David Amaro on guitar, Hugo Fattoruso on keyboards and harmonica, Jorge Fattoruso on drums and Ringo Thielmann on electric bass. Produced by Taylor and recorded at Rudy Van Gelder's famous New Jersey studio, this LP demonstrates just how exciting and creative 1970s fusion could be. When Moreira and his colleagues blend jazz with Brazilian music, rock and funk on such cuts as "Wind Chant," "Tombo in 7/4" and "Romance of Death," the results are consistently enriching. Fingers is an album to savor.
-allmusic.com
 
Состав
Acoustic Guitar, Electric Guitar, Guitar [12 String] – David Amaro
Bass, Vocals – Ringo Thielmann
Drums, Vocals – Jorge Fattoruso
Engineer – Rudy Van Gelder
Keyboards, Harmonica, Vocals – Hugo Fattoruso
Percussion, Drums, Vocals – Airto*
Percussion, Vocals – Flora Purim
Доп. информация:
Original Release Date: August 9, 2011.
Информация о серии CTI Records 40th Anniversary Edition - http://www.ctimasterworks.com/discography
"Родные" сканы, к сожалению, отсутствовали. Сканы к японскому ремастеру 2006 года можно скачать здесь.
Для корректности проигрывания и записи в наименовании 7-го трека символ "/" заменен на "_" (файлы 07 Tombo In 7_4.flac, Fingers.wav.edited.cue)
Any questions - support@pro-jazz.com.
Есть вопросы - support@pro-jazz.com
00:52
353
Нет комментариев. Ваш будет первым!