Поиск

(Crossover Jazz, Jazz-Pop, Contemporary Jazz) Jeff Golub - Out of the Blue - 1999, FLAC (tracks+.cue), lossless

(Crossover Jazz, Jazz-Pop, Contemporary Jazz) Jeff Golub - Out of the Blue - 1999, FLAC (tracks+.cue), lossless
Треклист:
Jeff Golub - Out of the Blue
Жанр: Crossover Jazz, Jazz-Pop, Contemporary Jazz
Страна-производитель диска: США
Год издания: 1999
Издатель (лейбл): Bluemoon/Atlantic
Номер по каталогу: 92819-2
Аудиокодек: FLAC (*.flac)
Тип рипа: tracks+.cue
Битрейт аудио: lossless
Продолжительность: 59:39
Источник (релизер): indeep1 (nnm)
Наличие сканов в содержимом раздачи: да
Треклист:
01. Wanna Funk? (Golub-Saisse) - 5:20
02. Indiana Moon (Golub) - 4:35
03. Manteca (Gillespie-Pozo) - 4:22
04. The Velvet Touch (Golub-Saisse) - 6:09
05. My Everything (Golub-Saisse) - 6:27
06. Lucky Strike (Golub-Saisse) - 5:03
07. Latitude 19 (Golub) - 5:34
08. Come on Home (Golub) - 4:44
09. Paradise Lost (Golub-Saisse) - 7:41
10. Groanin' (Golub) - 9:44
Состав:
Jeff Golub - guitar
Philippe Saisse - keyboards
Steve Ferrone - drums
Tony Levin - bass, Chapman stick
 
Лог создания рипа
Exact Audio Copy V0.99 prebeta 4 from 23. January 2008
EAC extraction logfile from 14. July 2009, 23:57
Jeff Golub / Out of the Blue 1999
Used drive : HL-DT-STDVDRAM GSA-H42N Adapter: 0 ID: 1
Read mode : Secure
Utilize accurate stream : Yes
Defeat audio cache : Yes
Make use of C2 pointers : No
Read offset correction : 667
Overread into Lead-In and Lead-Out : No
Fill up missing offset samples with silence : Yes
Delete leading and trailing silent blocks : No
Null samples used in CRC calculations : Yes
Used interface : Installed external ASPI interface
Gap handling : Appended to previous track
Used output format : User Defined Encoder
Selected bitrate : 320 kBit/s
Quality : High
Add ID3 tag : No
Command line compressor : C:\Program Files\Exact Audio Copy\flac.exe
Additional command line options : -8 -V -T "ARTIST=%a" -T "TITLE=%t" -T "ALBUM=%g" -T "DATE=%y" -T "TRACKNUMBER=%n" -T "GENRE=%m" -T "COMMENT=EAC Flac 1.1.4 -8" %s
TOC of the extracted CD
Track | Start | Length | Start sector | End sector
---------------------------------------------------------
1 | 0:00.32 | 5:20.45 | 32 | 24076
2 | 5:21.02 | 4:35.28 | 24077 | 44729
3 | 9:56.30 | 4:22.10 | 44730 | 64389
4 | 14:18.40 | 6:09.07 | 64390 | 92071
5 | 20:27.47 | 6:27.03 | 92072 | 121099
6 | 26:54.50 | 5:03.30 | 121100 | 143854
7 | 31:58.05 | 5:34.52 | 143855 | 168956
8 | 37:32.57 | 4:44.35 | 168957 | 190291
9 | 42:17.17 | 7:41.00 | 190292 | 224866
10 | 49:58.17 | 9:44.50 | 224867 | 268716
Track 1
Filename D:\My Rips\Jeff Golub - 1999- Out of the Blue 1999\01 - Wanna Funk .wav
Pre-gap length 0:00:02.42
Peak level 97.7 %
Track quality 100.0 %
Test CRC 08296931
Copy CRC 08296931
Accurately ripped (confidence 4) [7165F0C0]
Copy OK
Track 2
Filename D:\My Rips\Jeff Golub - 1999- Out of the Blue 1999\02 - Indiana Moon .wav
Pre-gap length 0:00:00.14
Peak level 97.7 %
Track quality 100.0 %
Test CRC 26F11992
Copy CRC 26F11992
Accurately ripped (confidence 4) [68F9299F]
Copy OK
Track 3
Filename D:\My Rips\Jeff Golub - 1999- Out of the Blue 1999\03 - Manteca .wav
Pre-gap length 0:00:01.05
Peak level 97.7 %
Track quality 100.0 %
Test CRC 13C34D67
Copy CRC 13C34D67
Accurately ripped (confidence 4) [969B524E]
Copy OK
Track 4
Filename D:\My Rips\Jeff Golub - 1999- Out of the Blue 1999\04 - The Velvet Touch .wav
Pre-gap length 0:00:02.94
Peak level 97.7 %
Track quality 100.0 %
Test CRC B4F992FB
Copy CRC B4F992FB
Accurately ripped (confidence 4) [19A08460]
Copy OK
Track 5
Filename D:\My Rips\Jeff Golub - 1999- Out of the Blue 1999\05 - My Everything .wav
Pre-gap length 0:00:01.84
Peak level 92.9 %
Track quality 100.0 %
Test CRC CF14A2DD
Copy CRC CF14A2DD
Accurately ripped (confidence 4) [9D880B1B]
Copy OK
Track 6
Filename D:\My Rips\Jeff Golub - 1999- Out of the Blue 1999\06 - Lucky Strike .wav
Pre-gap length 0:00:01.25
Peak level 97.7 %
Track quality 100.0 %
Test CRC 1E2ABA70
Copy CRC 1E2ABA70
Accurately ripped (confidence 4) [5F796B1C]
Copy OK
Track 7
Filename D:\My Rips\Jeff Golub - 1999- Out of the Blue 1999\07 - Latitude 19 .wav
Pre-gap length 0:00:00.57
Peak level 97.7 %
Track quality 100.0 %
Test CRC 3E1A76BB
Copy CRC 3E1A76BB
Accurately ripped (confidence 4) [A4790B24]
Copy OK
Track 8
Filename D:\My Rips\Jeff Golub - 1999- Out of the Blue 1999\08 - Come On Home .wav
Pre-gap length 0:00:00.52
Peak level 97.7 %
Track quality 100.0 %
Test CRC A627893D
Copy CRC A627893D
Accurately ripped (confidence 4) [836284EC]
Copy OK
Track 9
Filename D:\My Rips\Jeff Golub - 1999- Out of the Blue 1999\09 - Paradise Lost .wav
Pre-gap length 0:00:00.52
Peak level 97.7 %
Track quality 100.0 %
Test CRC 138FB482
Copy CRC 138FB482
Accurately ripped (confidence 4) [25D3B081]
Copy OK
Track 10
Filename D:\My Rips\Jeff Golub - 1999- Out of the Blue 1999\10 - Groanin' .wav
Pre-gap length 0:00:00.68
Peak level 97.7 %
Track quality 100.0 %
Test CRC 1F64D25A
Copy CRC 1F64D25A
Accurately ripped (confidence 4) [25270AF3]
Copy OK
All tracks accurately ripped
No errors occurred
End of status report
 
Содержание индексной карты (.CUE)
REM GENRE Fusion
REM DATE 1999
REM DISCID 790DFE0A
REM COMMENT "ExactAudioCopy v0.99pb4"
PERFORMER "Jeff Golub"
TITLE "Out of the Blue"
FILE "01 - Wanna Funk.wav" WAVE
TRACK 01 AUDIO
TITLE "Wanna Funk?"
PERFORMER "Jeff Golub"
PREGAP 00:00:32
INDEX 01 00:00:00
TRACK 02 AUDIO
TITLE "Indiana Moon"
PERFORMER "Jeff Golub"
INDEX 00 05:20:34
FILE "02 - Indiana Moon.wav" WAVE
INDEX 01 00:00:00
TRACK 03 AUDIO
TITLE "Manteca"
PERFORMER "Jeff Golub"
INDEX 00 04:34:24
FILE "03 - Manteca.wav" WAVE
INDEX 01 00:00:00
TRACK 04 AUDIO
TITLE "The Velvet Touch"
PERFORMER "Jeff Golub"
INDEX 00 04:19:14
FILE "04 - The Velvet Touch.wav" WAVE
INDEX 01 00:00:00
TRACK 05 AUDIO
TITLE "My Everything"
PERFORMER "Jeff Golub"
INDEX 00 06:07:19
FILE "05 - My Everything.wav" WAVE
INDEX 01 00:00:00
TRACK 06 AUDIO
TITLE "Lucky Strike"
PERFORMER "Jeff Golub"
INDEX 00 06:25:59
FILE "06 - Lucky Strike.wav" WAVE
INDEX 01 00:00:00
TRACK 07 AUDIO
TITLE "Latitude 19"
PERFORMER "Jeff Golub"
INDEX 00 05:02:62
FILE "07 - Latitude 19.wav" WAVE
INDEX 01 00:00:00
TRACK 08 AUDIO
TITLE "Come on Home"
PERFORMER "Jeff Golub"
INDEX 00 05:34:13
FILE "08 - Come on Home.wav" WAVE
INDEX 01 00:00:00
TRACK 09 AUDIO
TITLE "Paradise Lost"
PERFORMER "Jeff Golub"
INDEX 00 04:43:71
FILE "09 - Paradise Lost.wav" WAVE
INDEX 01 00:00:00
TRACK 10 AUDIO
TITLE "Groanin'"
PERFORMER "Jeff Golub"
INDEX 00 07:40:24
FILE "10 - Groanin'.wav" WAVE
INDEX 01 00:00:00
 
Review by Jonathan Widran
Jeff Golub is categorized in the smooth jazz genre because he's an instrumentalist; at heart, though, he's an Eric Clapton styled rockin' blues guitar player who, on Out of the Blue, finds himself stumbling happily into Tower of Power-like jam sessions. He pulls no punches from the start, rocking hard and furious with his distorted electric thrust darting around and over Ricky Peterson's brooding B-3 and a three-piece horn section on "Wanna Funk?" Same idea, south of the border style, on the similarly hard-hitting Latin blues hurricane "Manteca," where Golub explores some improvisational territory in between sizzling solo sections by his longtime friend Rick Braun. Golub co-produced the album with keyboardist Philippe Saisse, whose comparatively laid-back style keeps Golub in the cool on more mid-tempo, easy to latch onto pieces like "Indiana Moon"; the guitarist gets more aggressive as the song progresses, but the hooky piano harmony line stays a constant. Saisse helps bring out Golub's completely meditative side on "The Velvet Touch" for about half the tune before the electricity rises once again. It's as if Golub just can't keep his virtuosity to himself, no matter how emotionally restrained the trappings. "Groanin'" is a unique departure which plays as though Golub got up one night in a straight-ahead jazz club and tried his hand (pretty convincingly, at that) at the bebop quartet thing.
Приватный:
Нет (DHT включён)
Размер:
373.42 Мб (391,557,387 байт) » файлов: 16
Участники:
21 раздают, 0 качают (21 участников всего)
Внешние участники:
2 раздают, 1 качают (3 участников всего) [ Обновить ]
For power users only: no seeders - write personal message to M0p94ok. Для power user: нет сидеров - пишите в личку M0p94ok.
03:42
157
Нет комментариев. Ваш будет первым!