Поиск

(Crossover Jazz, Jazz Instrument, Piano Jazz) David Benoit - Professional Dreamer - 1999, FLAC (tracks+.cue), lossless

(Crossover Jazz, Jazz Instrument, Piano Jazz) David Benoit - Professional Dreamer - 1999, FLAC (tracks+.cue), lossless
Треклист:
David Benoit - Professional Dreamer
Жанр: Crossover Jazz, Jazz Instrument, Piano Jazz
Год выпуска: Jun 1, 1999
Страна: Germany
Label: GRP
Cat.#: 059-942-2
Аудио кодек: FLAC
Тип рипа: tracks+.cue
Битрейт аудио: lossless
Продолжительность: 47:03
Трэклист:
01. David Benoit - Why Not! (4:56)
02. David Benoit - Miles After Dark (5:33)
03. David Benoit - Something You Said (5:00)
04. David Benoit - ReJoyce (4:47)
05. David Benoit - Golden Gate (4:55)
06. David Benoit - Gothic Jazz Dance (4:15)
07. David Benoit - Jump Start (4:49)
08. David Benoit - Thinking 'Bout the Cove (4:21)
09. David Benoit - Twilight March (4:46)
10. David Benoit - Dad's Room (3:41)
 
EAC log
Exact Audio Copy V0.99 prebeta 3 from 28. July 2007
EAC extraction logfile from 15. May 2010, 17:12
David Benoit / Professional Dreamer
Used drive : Optiarc DVD RW AD-7240S Adapter: 0 ID: 1
Read mode : Secure
Utilize accurate stream : Yes
Defeat audio cache : Yes
Make use of C2 pointers : No
Read offset correction : 48
Overread into Lead-In and Lead-Out : No
Fill up missing offset samples with silence : Yes
Delete leading and trailing silent blocks : No
Null samples used in CRC calculations : Yes
Used interface : Native Win32 interface for Win NT & 2000
Gap handling : Appended to previous track
Used output format : User Defined Encoder
Selected bitrate : 768 kBit/s
Quality : High
Add ID3 tag : No
Command line compressor : C:\Program Files (x86)\Exact Audio Copy\FLAC\FLAC.EXE
Additional command line options : -V -8 -T "artist=%a" -T "title=%t" -T "album=%g" -T "date=%y" -T "tracknumber=%n" -T "genre=%m" %s
TOC of the extracted CD
Track | Start | Length | Start sector | End sector
---------------------------------------------------------
1 | 0:00.00 | 4:56.25 | 0 | 22224
2 | 4:56.25 | 5:33.20 | 22225 | 47219
3 | 10:29.45 | 4:59.50 | 47220 | 69694
4 | 15:29.20 | 4:47.07 | 69695 | 91226
5 | 20:16.27 | 4:55.00 | 91227 | 113351
6 | 25:11.27 | 4:15.08 | 113352 | 132484
7 | 29:26.35 | 4:48.72 | 132485 | 154156
8 | 34:15.32 | 4:20.53 | 154157 | 173709
9 | 38:36.10 | 4:45.65 | 173710 | 195149
10 | 43:22.00 | 3:40.70 | 195150 | 211719
Track 1
Filename E:\EACrips\David Benoit - Professional Dreamer [1999]\01 - Why Not!.wav
Pre-gap length 0:00:02.00
Peak level 100.0 %
Track quality 100.0 %
Test CRC A0B03AA7
Copy CRC A0B03AA7
Accurately ripped (confidence 28) [FBEA8B0F]
Copy OK
Track 2
Filename E:\EACrips\David Benoit - Professional Dreamer [1999]\02 - Miles After Dark.wav
Pre-gap length 0:00:01.25
Peak level 100.0 %
Track quality 100.0 %
Test CRC 48A53500
Copy CRC 48A53500
Accurately ripped (confidence 28) [781A3055]
Copy OK
Track 3
Filename E:\EACrips\David Benoit - Professional Dreamer [1999]\03 - Something You Said.wav
Pre-gap length 0:00:02.20
Peak level 100.0 %
Track quality 100.0 %
Test CRC A5B93C5F
Copy CRC A5B93C5F
Accurately ripped (confidence 28) [358EFB93]
Copy OK
Track 4
Filename E:\EACrips\David Benoit - Professional Dreamer [1999]\04 - ReJoyce.wav
Pre-gap length 0:00:02.38
Peak level 100.0 %
Track quality 100.0 %
Test CRC D36C1B4D
Copy CRC D36C1B4D
Accurately ripped (confidence 28) [7640F8F9]
Copy OK
Track 5
Filename E:\EACrips\David Benoit - Professional Dreamer [1999]\05 - Golden Gate.wav
Pre-gap length 0:00:02.45
Peak level 100.0 %
Track quality 100.0 %
Test CRC 05481305
Copy CRC 05481305
Accurately ripped (confidence 28) [DF23B718]
Copy OK
Track 6
Filename E:\EACrips\David Benoit - Professional Dreamer [1999]\06 - Gothic Jazz Dance.wav
Pre-gap length 0:00:02.67
Peak level 100.0 %
Track quality 100.0 %
Test CRC 571A15DD
Copy CRC 571A15DD
Accurately ripped (confidence 28) [EF11DA8F]
Copy OK
Track 7
Filename E:\EACrips\David Benoit - Professional Dreamer [1999]\07 - Jump Start.wav
Pre-gap length 0:00:02.40
Peak level 100.0 %
Track quality 100.0 %
Test CRC 8171FFD7
Copy CRC 8171FFD7
Accurately ripped (confidence 27) [DDD5F9E4]
Copy OK
Track 8
Filename E:\EACrips\David Benoit - Professional Dreamer [1999]\08 - Thinking 'Bout the Cove.wav
Pre-gap length 0:00:03.00
Peak level 100.0 %
Track quality 100.0 %
Test CRC DCCF0551
Copy CRC DCCF0551
Accurately ripped (confidence 28) [F946F82C]
Copy OK
Track 9
Filename E:\EACrips\David Benoit - Professional Dreamer [1999]\09 - Twilight March.wav
Pre-gap length 0:00:02.10
Peak level 100.0 %
Track quality 100.0 %
Test CRC BE994FBB
Copy CRC BE994FBB
Accurately ripped (confidence 28) [3C9486B4]
Copy OK
Track 10
Filename E:\EACrips\David Benoit - Professional Dreamer [1999]\10 - Dad's Room.wav
Pre-gap length 0:00:02.28
Peak level 84.4 %
Track quality 100.0 %
Test CRC D2036EDC
Copy CRC D2036EDC
Accurately ripped (confidence 27) [A26B2EEB]
Copy OK
All tracks accurately ripped
No errors occurred
End of status report
 
CUE
REM GENRE Jazz
REM DATE 1999
REM DISCID 800B060A
REM COMMENT "ExactAudioCopy v0.99pb3"
PERFORMER "David Benoit"
TITLE "Professional Dreamer"
FILE "01 - Why Not!.wav" WAVE
TRACK 01 AUDIO
TITLE "Why Not!"
PERFORMER "David Benoit"
INDEX 01 00:00:00
TRACK 02 AUDIO
TITLE "Miles After Dark"
PERFORMER "David Benoit"
INDEX 00 04:55:00
FILE "02 - Miles After Dark.wav" WAVE
INDEX 01 00:00:00
TRACK 03 AUDIO
TITLE "Something You Said"
PERFORMER "David Benoit"
INDEX 00 05:31:00
FILE "03 - Something You Said.wav" WAVE
INDEX 01 00:00:00
TRACK 04 AUDIO
TITLE "ReJoyce"
PERFORMER "David Benoit"
INDEX 00 04:57:12
FILE "04 - ReJoyce.wav" WAVE
INDEX 01 00:00:00
TRACK 05 AUDIO
TITLE "Golden Gate"
PERFORMER "David Benoit"
INDEX 00 04:44:37
FILE "05 - Golden Gate.wav" WAVE
INDEX 01 00:00:00
TRACK 06 AUDIO
TITLE "Gothic Jazz Dance"
PERFORMER "David Benoit"
INDEX 00 04:52:08
FILE "06 - Gothic Jazz Dance.wav" WAVE
INDEX 01 00:00:00
TRACK 07 AUDIO
TITLE "Jump Start"
PERFORMER "David Benoit"
INDEX 00 04:12:43
FILE "07 - Jump Start.wav" WAVE
INDEX 01 00:00:00
TRACK 08 AUDIO
TITLE "Thinking 'Bout the Cove"
PERFORMER "David Benoit"
INDEX 00 04:45:72
FILE "08 - Thinking 'Bout the Cove.wav" WAVE
INDEX 01 00:00:00
TRACK 09 AUDIO
TITLE "Twilight March"
PERFORMER "David Benoit"
INDEX 00 04:18:43
FILE "09 - Twilight March.wav" WAVE
INDEX 01 00:00:00
TRACK 10 AUDIO
TITLE "Dad's Room"
PERFORMER "David Benoit"
INDEX 00 04:43:37
FILE "10 - Dad's Room.wav" WAVE
INDEX 01 00:00:00
Рип заимствован с what.cd
Скачивание доступно после регистрации!!
Приватный:
Нет (DHT включён)
Размер:
293.12 Мб (307,361,040 байт) » файлов: 14
Участники:
0 раздают, 0 качают (0 участников всего)
Внешние участники:
--- [ Обновить ]
10:23
11
Нет комментариев. Ваш будет первым!