Поиск

(Crossover Jazz, Hard Bop, Post-Bop, Fusion) [CD] John Klemmer - Constant Throb - 1971 (2015 Japan Edition), FLAC (tracks+.cue), lossless

(Crossover Jazz, Hard Bop, Post-Bop, Fusion) [CD] John Klemmer - Constant Throb - 1971 (2015 Japan Edition), FLAC (tracks+.cue), lossless
Треклист:
John Klemmer - Constant Throb
Жанр: Crossover Jazz, Hard Bop, Post-Bop, Fusion
Носитель: CD
Страна-производитель диска (релиза): Япония
Год издания: 2015
Издатель (лейбл): Impulse!/Universal
Номер по каталогу: UCCU-90097
Страна исполнителя (группы): США
Аудиокодек: FLAC (*.flac)
Тип рипа: tracks+.cue
Битрейт аудио: lossless
Продолжительность: 40:21
Источник (релизер): wikieup (what)
Наличие сканов в содержимом раздачи: нет
Треклист:
01. Constant Throb, Part I (Klemmer) - 3:02
02. Constant Throb, Part II (Klemmer) - 5:22
03. Neptune (Klemmer) - 5:07
04. Let Me Touch the Wind (Klemmer) - 6:40
05. California Jazz Dance (Klemmer) - 4:19
06. Rainbows (Klemmer) - 5:36
07. Crystaled Tears (Klemmer) - 4:36
08. Precious Leaf (Klemmer) - 5:39
 
Лог создания рипа
Exact Audio Copy V1.0 beta 3 from 29. August 2011
EAC extraction logfile from 7. April 2015, 12:43
John Klemmer / Constant Throb [2015 Reissue]
Used drive : TSSTcorpDVD-ROM TS-U333B Adapter: 0 ID: 1
Read mode : Secure
Utilize accurate stream : Yes
Defeat audio cache : Yes
Make use of C2 pointers : No
Read offset correction : 6
Overread into Lead-In and Lead-Out : No
Fill up missing offset samples with silence : Yes
Delete leading and trailing silent blocks : No
Null samples used in CRC calculations : Yes
Used interface : Native Win32 interface for Win NT & 2000
Gap handling : Appended to previous track
Used output format : User Defined Encoder
Selected bitrate : 1024 kBit/s
Quality : High
Add ID3 tag : No
Command line compressor : C:\Program Files\Exact Audio Copy\Flac\flac.exe
Additional command line options : -8 -V -T "ARTIST=%artist%" -T "TITLE=%title%" -T "ALBUM=%albumtitle%" -T "DATE=%year%" -T "TRACKNUMBER=%tracknr%" -T "GENRE=%genre%" -T "PERFORMER=%albuminterpret%" -T "COMPOSER=%composer%" %haslyrics%--tag-from-file=LYRICS="%lyricsfile%"%haslyrics% -T "ALBUMARTIST=%albumartist%" -T "DISCNUMBER=%cdnumber%" -T "TOTALDISCS=%totalcds%" -T "TOTALTRACKS=%numtracks%" -T "COMMENT=%comment%" %source% -o %dest%
TOC of the extracted CD
Track | Start | Length | Start sector | End sector
---------------------------------------------------------
1 | 0:00.00 | 3:02.11 | 0 | 13660
2 | 3:02.11 | 5:22.22 | 13661 | 37832
3 | 8:24.33 | 5:07.24 | 37833 | 60881
4 | 13:31.57 | 6:40.23 | 60882 | 90904
5 | 20:12.05 | 4:19.20 | 90905 | 110349
6 | 24:31.25 | 5:35.52 | 110350 | 135526
7 | 30:07.02 | 4:35.74 | 135527 | 156225
8 | 34:43.01 | 5:39.33 | 156226 | 181683
Track 1
Filename C:\EAC Rips\01 - Constant Throb - Part One.wav
Pre-gap length 0:00:02.00
Peak level 86.3 %
Extraction speed 2.4 X
Track quality 100.0 %
Test CRC 153D6431
Copy CRC 153D6431
Cannot be verified as accurate (confidence 1) [BEF5AC54], AccurateRip returned [15176CF0] (AR v2)
Copy OK
Track 2
Filename C:\EAC Rips\02 - Constant Throb - Part Two.wav
Peak level 97.7 %
Extraction speed 3.0 X
Track quality 100.0 %
Test CRC E4B62947
Copy CRC E4B62947
Cannot be verified as accurate (confidence 1) [999A9EBE], AccurateRip returned [0AB77027] (AR v2)
Copy OK
Track 3
Filename C:\EAC Rips\03 - Neptune.wav
Peak level 97.7 %
Extraction speed 3.3 X
Track quality 100.0 %
Test CRC 12E6A7A2
Copy CRC 12E6A7A2
Cannot be verified as accurate (confidence 1) [AED80C7C], AccurateRip returned [359A4AA2] (AR v2)
Copy OK
Track 4
Filename C:\EAC Rips\04 - Let Me Touch The Wind.wav
Peak level 97.7 %
Extraction speed 3.7 X
Track quality 100.0 %
Test CRC B12CF396
Copy CRC B12CF396
Cannot be verified as accurate (confidence 1) [DB5A1B75], AccurateRip returned [FB945A28] (AR v2)
Copy OK
Track 5
Filename C:\EAC Rips\05 - California Jazz Dance.wav
Peak level 97.7 %
Extraction speed 3.1 X
Track quality 99.9 %
Test CRC 9FB3B6B3
Copy CRC 9FB3B6B3
Cannot be verified as accurate (confidence 1) [BCD12D7C], AccurateRip returned [1BAD6384] (AR v2)
Copy OK
Track 6
Filename C:\EAC Rips\06 - Rainbows.wav
Peak level 97.7 %
Extraction speed 4.1 X
Track quality 100.0 %
Test CRC F87CA4B2
Copy CRC F87CA4B2
Cannot be verified as accurate (confidence 1) [6415C054], AccurateRip returned [7DD0B69E] (AR v2)
Copy OK
Track 7
Filename C:\EAC Rips\07 - Crystaled Tears.wav
Peak level 97.7 %
Extraction speed 4.2 X
Track quality 100.0 %
Test CRC FB69DA1F
Copy CRC FB69DA1F
Cannot be verified as accurate (confidence 1) [F5B273CC], AccurateRip returned [949D63E2] (AR v2)
Copy OK
Track 8
Filename C:\EAC Rips\08 - Precious Leaf.wav
Peak level 97.7 %
Extraction speed 4.5 X
Track quality 100.0 %
Test CRC 0523BC23
Copy CRC 0523BC23
Cannot be verified as accurate (confidence 1) [D66306FC], AccurateRip returned [AC1B94AD] (AR v2)
Copy OK
No tracks could be verified as accurate
You may have a different pressing from the one(s) in the database
No errors occurred
End of status report
==== Log checksum 7EAFDBEA79BF39CD2495F7FBBFEE1D89505265EBB1944989B1140D4F1B31372C ====
 
Содержание индексной карты (.CUE)
REM GENRE Jazz
REM DATE 1971
REM DISCID 5E097608
REM COMMENT "ExactAudioCopy v1.0b3"
PERFORMER "John Klemmer"
TITLE "Constant Throb"
FILE "01 - Constant Throb, Part I.wav" WAVE
TRACK 01 AUDIO
TITLE "Constant Throb, Part I"
PERFORMER "John Klemmer"
INDEX 01 00:00:00
FILE "02 - Constant Throb, Part II.wav" WAVE
TRACK 02 AUDIO
TITLE "Constant Throb, Part II"
PERFORMER "John Klemmer"
INDEX 01 00:00:00
FILE "03 - Neptune.wav" WAVE
TRACK 03 AUDIO
TITLE "Neptune"
PERFORMER "John Klemmer"
INDEX 01 00:00:00
FILE "04 - Let Me Touch the Wind.wav" WAVE
TRACK 04 AUDIO
TITLE "Let Me Touch the Wind"
PERFORMER "John Klemmer"
INDEX 01 00:00:00
FILE "05 - California Jazz Dance.wav" WAVE
TRACK 05 AUDIO
TITLE "California Jazz Dance"
PERFORMER "John Klemmer"
INDEX 01 00:00:00
FILE "06 - Rainbows.wav" WAVE
TRACK 06 AUDIO
TITLE "Rainbows"
PERFORMER "John Klemmer"
INDEX 01 00:00:00
FILE "07 - Crystaled Tears.wav" WAVE
TRACK 07 AUDIO
TITLE "Crystaled Tears"
PERFORMER "John Klemmer"
INDEX 01 00:00:00
FILE "08 - Precious Leaf.wav" WAVE
TRACK 08 AUDIO
TITLE "Precious Leaf"
PERFORMER "John Klemmer"
INDEX 01 00:00:00
 
Отчет CUETools
[CUETools log; Date: 18.09.2015 1:41:29; Version: 2.1.5]
[CTDB TOCID: ZGDqjD0tDGyBdhXkWxUm7O7wtbk-] disk not present in database.
[AccurateRip ID: 000c027c-00516664-5e097608] found.
Track [ CRC | V2 ] Status
01 [9ff11eda|bef5ac54] (0+0/1) No match
02 [a93c1da6|999a9ebe] (0+0/1) No match
03 [8b004ed9|aed80c7c] (0+0/1) No match
04 [ee4e161d|db5a1b75] (0+0/1) No match
05 [a54684ac|bcd12d7c] (0+0/1) No match
06 [2736ac21|6415c054] (0+0/1) No match
07 [58072f99|f5b273cc] (0+0/1) No match
08 [f7f5c4a5|d66306fc] (0+0/1) No match
Offsetted by 25:
01 [15176cf0] (1/1) Accurately ripped
02 [0ab77027] (1/1) Accurately ripped
03 [359a4aa2] (1/1) Accurately ripped
04 [fb945a28] (1/1) Accurately ripped
05 [1bad6384] (1/1) Accurately ripped
06 [7dd0b69e] (1/1) Accurately ripped
07 [949d63e2] (1/1) Accurately ripped
08 [ac1b94ad] (1/1) Accurately ripped
Track Peak [ CRC32 ] [W/O NULL] [ LOG ]
-- 97,7 [C652B632] [B1273F23]
01 86,3 [153D6431] [2E3EFB97] CRC32
02 97,7 [E4B62947] [D03AE0ED] CRC32
03 97,7 [12E6A7A2] [353A308D] CRC32
04 97,7 [B12CF396] [B76E9D95] CRC32
05 97,7 [9FB3B6B3] [4F88C94E] CRC32
06 97,7 [F87CA4B2] [2BA54E3B] CRC32
07 97,7 [FB69DA1F] [2F75AF53] CRC32
08 97,7 [0523BC23] [088A4A5B] CRC32
 
Об альбоме (сборнике)
One of the hippest albums that John Klemmer ever cut – a tremendous little set that's quite worthy of inclusion in the early 70s Impulse Records generation – and which is far different than any of his smoother sessions from later years! Klemmer's picking up bits of Coltrane here, but he's also infusing them with some of the spacier, more cosmic modes of Lonnie Liston Smith and his crowd – an approach to soul jazz that's still spiritual, but which also can drift along on cosmic waves as much as it can soar to the skies in freer, rocket-propelled solos! Klemmer plays both tenor and soprano sax – but also handles some keyboards too, including some great Fender Rhodes – plus "piano percussion". Other players include Don Menza on flute and clarinet, Mike Wofford on clavinet and Fender Rhodes, Mike Lang on piano and Rhodes, and Reggie Johnson on bass. Shelly Manne plays some surprisingly hip drums – definitely in the mode of his Mannekind album – and Marni Nixon sings in a sweet wordless style on one track on the set.
 
Состав
John Klemmer - tenor saxophone, soprano saxophone, electric piano, percussion, echoplex
Don Menza - alto flute, bass clarinet
Mike Lang - piano, electric piano
Mike Wofford - electric piano, clavinet
Howard Roberts - guitar
Wilton Felder, Reggie Johnson - bass
Jim Keltner, Shelly Manne - drums
Gary Coleman, Mark Stevens - percussion
Marni Nixon - vocals (#1,2)
Recorded at Western Recorders, Los Angeles, CA on August 12 (#1-3,5,6,8) and August 19 (#4,7), 1971.
Приватный:
Нет (DHT включён)
Размер:
238.55 Мб (250,141,978 байт) » файлов: 14
Участники:
0 раздают, 0 качают (0 участников всего)
Внешние участники:
2 раздают, 1 качают (3 участников всего) [ Обновить ]
For power users only: no seeders - write personal message to M0p94ok. Для power user: нет сидеров - пишите в личку M0p94ok.
10:17
147
Нет комментариев. Ваш будет первым!