Вы используете незарегистрированную версию компонента "Вкладки"!

Поиск

(Crossover Jazz, Fusion, Smooth Jazz) [CD] Larry Carlton - Strikes Twice - 1980 (1988), FLAC (tracks+.cue), lossless

(Crossover Jazz, Fusion, Smooth Jazz) [CD] Larry Carlton - Strikes Twice - 1980 (1988), FLAC (tracks+.cue), lossless
Треклист:
Larry Carlton - Strikes Twice
Жанр: Crossover Jazz, Fusion, Smooth Jazz
Носитель: CD
Страна-производитель диска: США
Год издания: 1988
Издатель (лейбл): MCA Records/Warner Bros. Records
Номер по каталогу: MCAD-42246
Аудиокодек: FLAC (*.flac)
Тип рипа: tracks+.cue
Битрейт аудио: lossless
Продолжительность: 41:10
Источник (релизер): jazzluq
Наличие сканов в содержимом раздачи: да
Треклист:
01. Strikes Twice (Carlton) - 5:28
02. Ain't Nothin' for a Heartache (Chater-Longfellow) - 3:18
03. Midnight Parade (Carlton) - 5:04
04. The Magician (Carlton-Townsend) - 4:15
05. Springville (Carlton) - 6:37
06. Mulberry Street (Carlton) - 7:16
07. In My Blood (Carlton-Townsend) - 4:13
08. For Love Alone (Carlton) - 4:59
Состав:
Larry Carlton - guitar, synthesizer, vocals
Greg Mathieson, Brian Mann, Don Freeman, Terry Trotter - keyboards
Robert "Pops" Popwell - bass
John Ferraro - drums
Paulinho Da Costa - percussion
Recorded at Room 335, Hollywood, CA.
 
Лог создания рипа
Exact Audio Copy V1.0 beta 1 from 15. November 2010
EAC extraction logfile from 26. October 2012, 16:35
Larry Carlton / Strikes Twice
Used drive : Optiarc DVD RW AD-7200A Adapter: 0 ID: 0
Read mode : Secure
Utilize accurate stream : Yes
Defeat audio cache : Yes
Make use of C2 pointers : No
Read offset correction : 48
Overread into Lead-In and Lead-Out : No
Fill up missing offset samples with silence : Yes
Delete leading and trailing silent blocks : No
Null samples used in CRC calculations : Yes
Used interface : Native Win32 interface for Win NT & 2000
Gap handling : Appended to previous track
Used output format : User Defined Encoder
Selected bitrate : 768 kBit/s
Quality : High
Add ID3 tag : No
Command line compressor : C:\Program Files\Exact Audio Copy\Flac\flac.exe
Additional command line options : -8 -V -T "ARTIST=%a" -T "TITLE=%t" -T "ALBUM=%g" -T "DATE=%y" -T "TRACKNUMBER=%n" -T "TOTALTRACKS=%x" -T "GENRE=%m" -T "ALBUMARTIST=%v" -T "ALBUM ARTIST=%v" -T "COMMENT=EAC Secure Mode, Test & Copy, AccurateRip, FLAC -8" %s
TOC of the extracted CD
Track | Start | Length | Start sector | End sector
---------------------------------------------------------
1 | 0:00.37 | 5:28.03 | 37 | 24639
2 | 5:28.40 | 3:18.27 | 24640 | 39516
3 | 8:46.67 | 5:04.00 | 39517 | 62316
4 | 13:50.67 | 4:15.30 | 62317 | 81471
5 | 18:06.22 | 6:37.13 | 81472 | 111259
6 | 24:43.35 | 7:15.45 | 111260 | 143929
7 | 31:59.05 | 4:13.20 | 143930 | 162924
8 | 36:12.25 | 4:59.22 | 162925 | 185371
Track 1
Filename D:\Larry Carlton - Strikes Twice (1980) [FLAC]\01 - Strikes Twice.wav
Pre-gap length 0:00:02.49
Peak level 96.5 %
Extraction speed 2.6 X
Track quality 100.0 %
Test CRC 12394CA7
Copy CRC 12394CA7
Accurately ripped (confidence 3) [0FF0F7DD]
Copy OK
Track 2
Filename D:\Larry Carlton - Strikes Twice (1980) [FLAC]\02 - Ain't Nothin' For A Heartache.wav
Pre-gap length 0:00:02.40
Peak level 85.1 %
Extraction speed 2.7 X
Track quality 100.0 %
Test CRC 98C479D4
Copy CRC 98C479D4
Accurately ripped (confidence 3) [79768450]
Copy OK
Track 3
Filename D:\Larry Carlton - Strikes Twice (1980) [FLAC]\03 - Midnight Parade.wav
Pre-gap length 0:00:01.66
Peak level 100.0 %
Extraction speed 3.1 X
Track quality 100.0 %
Test CRC 1141CE74
Copy CRC 1141CE74
Accurately ripped (confidence 3) [90A20F38]
Copy OK
Track 4
Filename D:\Larry Carlton - Strikes Twice (1980) [FLAC]\04 - The Magician.wav
Pre-gap length 0:00:00.60
Peak level 100.0 %
Extraction speed 3.3 X
Track quality 100.0 %
Test CRC D2684AFC
Copy CRC D2684AFC
Accurately ripped (confidence 3) [0D74D96F]
Copy OK
Track 5
Filename D:\Larry Carlton - Strikes Twice (1980) [FLAC]\05 - Springville.wav
Pre-gap length 0:00:02.80
Peak level 100.0 %
Extraction speed 3.4 X
Track quality 99.9 %
Test CRC E033A7AB
Copy CRC E033A7AB
Accurately ripped (confidence 3) [C80638B6]
Copy OK
Track 6
Filename D:\Larry Carlton - Strikes Twice (1980) [FLAC]\06 - Mulberry Street.wav
Peak level 100.0 %
Extraction speed 4.1 X
Track quality 100.0 %
Test CRC 70E1D87F
Copy CRC 70E1D87F
Accurately ripped (confidence 3) [74C3A663]
Copy OK
Track 7
Filename D:\Larry Carlton - Strikes Twice (1980) [FLAC]\07 - In My Blood.wav
Pre-gap length 0:00:01.20
Peak level 100.0 %
Extraction speed 4.1 X
Track quality 100.0 %
Test CRC 80DD4056
Copy CRC 80DD4056
Accurately ripped (confidence 3) [9C18FD07]
Copy OK
Track 8
Filename D:\Larry Carlton - Strikes Twice (1980) [FLAC]\08 - For Love Alone.wav
Pre-gap length 0:00:01.86
Peak level 62.5 %
Extraction speed 4.4 X
Track quality 100.0 %
Test CRC B884E73D
Copy CRC B884E73D
Accurately ripped (confidence 3) [E68CE610]
Copy OK
All tracks accurately ripped
No errors occurred
End of status report
==== Log checksum 1012818DEFC2913F559D9FDBE66F83F86D544089E092115FEB0631738153BA20 ====
 
Содержание индексной карты (.CUE)
REM GENRE Jazz
REM DATE 1980
REM DISCID 6209A708
REM COMMENT "ExactAudioCopy v1.0b1"
PERFORMER "Larry Carlton"
TITLE "Strikes Twice"
FILE "01 - Strikes Twice.wav" WAVE
TRACK 01 AUDIO
TITLE "Strikes Twice"
PERFORMER "Larry Carlton"
PREGAP 00:00:37
INDEX 01 00:00:00
TRACK 02 AUDIO
TITLE "Ain't Nothin' for a Heartache"
PERFORMER "Larry Carlton"
INDEX 00 05:25:48
FILE "02 - Ain't Nothin' for a Heartache.wav" WAVE
INDEX 01 00:00:00
TRACK 03 AUDIO
TITLE "Midnight Parade"
PERFORMER "Larry Carlton"
INDEX 00 03:16:52
FILE "03 - Midnight Parade.wav" WAVE
INDEX 01 00:00:00
TRACK 04 AUDIO
TITLE "The Magician"
PERFORMER "Larry Carlton"
INDEX 00 05:03:30
FILE "04 - The Magician.wav" WAVE
INDEX 01 00:00:00
TRACK 05 AUDIO
TITLE "Springville"
PERFORMER "Larry Carlton"
INDEX 00 04:12:45
FILE "05 - Springville.wav" WAVE
INDEX 01 00:00:00
FILE "06 - Mulberry Street.wav" WAVE
TRACK 06 AUDIO
TITLE "Mulberry Street"
PERFORMER "Larry Carlton"
INDEX 01 00:00:00
TRACK 07 AUDIO
TITLE "In My Blood"
PERFORMER "Larry Carlton"
INDEX 00 07:14:30
FILE "07 - In My Blood.wav" WAVE
INDEX 01 00:00:00
TRACK 08 AUDIO
TITLE "For Love Alone"
PERFORMER "Larry Carlton"
INDEX 00 04:11:30
FILE "08 - For Love Alone.wav" WAVE
INDEX 01 00:00:00
 
Отчет CUETools
[CUETools log; Date: 25.05.2014 18:42:09; Version: 2.1.4]
Pregap length 00:00:37.
[CTDB TOCID: xTkwAv.LLmM0Ompn8pswdSMuT04-] found.
Track | CTDB Status
1 | (1/1) Accurately ripped
2 | (1/1) Accurately ripped
3 | (1/1) Accurately ripped
4 | (1/1) Accurately ripped
5 | (1/1) Accurately ripped
6 | (1/1) Accurately ripped
7 | (1/1) Accurately ripped
8 | (1/1) Accurately ripped
[AccurateRip ID: 000c61ce-00537c52-6209a708] found.
Track [ CRC | V2 ] Status
01 [0ff0f7dd|ed5c5bd8] (3+6/9) Accurately ripped
02 [79768450|5b05bb5f] (3+6/9) Accurately ripped
03 [90a20f38|8b6d4859] (3+6/9) Accurately ripped
04 [0d74d96f|f121fb68] (3+6/9) Accurately ripped
05 [c80638b6|97275c28] (3+6/9) Accurately ripped
06 [74c3a663|5bbfb3b6] (3+6/9) Accurately ripped
07 [9c18fd07|4b30acf8] (3+6/9) Accurately ripped
08 [e68ce610|ccb5a23f] (3+6/9) Accurately ripped
Track Peak [ CRC32 ] [W/O NULL] [ LOG ]
-- 100,0 [97A83C70] [FE0DEA57]
01 96,5 [12394CA7] [50264752] CRC32
02 85,1 [98C479D4] [2A9AEE02] CRC32
03 100,0 [1141CE74] [A351A07E] CRC32
04 100,0 [D2684AFC] [5B260514] CRC32
05 100,0 [E033A7AB] [A951915C] CRC32
06 100,0 [70E1D87F] [AC680D65] CRC32
07 100,0 [80DD4056] [EC27CF16] CRC32
08 62,5 [B884E73D] [6F31A205] CRC32
 
Об альбоме (сборнике)
Carlton is one of these guys who practices constantly. I've heard tell that he'll walk around the house wearing his guitar and blowing scales -- and will even sit eating lunch with one hand and hammer on patterns on the neck with the other. This release showcases not only some of his more pyrotechnical playing, but also some of his most tuneful and hip playing as well. Check out "Springville" for sheer, over-the-top with-the-changes screamin' guitar soloing. Long live Larry!
-- By A Customer
Strikes Twice was originally released in 1980, and I have owned it on vinyl and the reissued CD. It was recorded back when Larry's quitar style and music bordered on Jazz-Rock-Blues fusion, which I love and which is the basic sound on this album. But I rarely listened to it until the CD and computers came along, which lets me remove & reorder tracks easily. My main problem with Strikes Twice has always been with 2 of the 3 tracks featuring Larry singing: The Magician (#4) and In My Blood (#7), both of which I feel are ruined by his vocals. But, I do like Ain't Nothin' For a Heartache (#2) which also has Larry singing. Contrary to the earlier reviewer, I do not like the all the guitar work on Springville (#5), which borders at times on being noise rather than music (my ears). Other than tracks #4, 5, & 7, the rest of the album is excellent and typical of Larry back in those days (1980).....if you enjoy his 1978 self titled album "Larry Carlton" you will enjoy "Strikes Twice" too. In conclusion, I like only 5 of the 8 tracks, which for me means this album is good or not bad, but certainly not great.
-- By William K. Smothers "Fogman"
На замену http://rutracker.org/forum/viewtopic.php?t=392437
Any questions - support@pro-jazz.com. Есть вопросы - support@pro-jazz.com
07:24
422
Нет комментариев. Ваш будет первым!