Поиск

(Crossover Jazz, Fusion, Smooth Jazz) [CD] Larry Carlton - Sleepwalk - 1982 (1988), FLAC (tracks+.cue), lossless

(Crossover Jazz, Fusion, Smooth Jazz) [CD] Larry Carlton - Sleepwalk - 1982 (1988), FLAC (tracks+.cue), lossless
Треклист:
Larry Carlton - Sleepwalk
Жанр: Crossover Jazz, Fusion, Smooth Jazz
Носитель: CD
Страна-производитель диска: США
Год издания: 1988
Издатель (лейбл): MCA/Warner Bros.
Номер по каталогу: MCAD-42247
Аудиокодек: FLAC (*.flac)
Тип рипа: tracks+.cue
Битрейт аудио: lossless
Продолжительность: 40:23
Источник (релизер): hrmaniaman (what)
Наличие сканов в содержимом раздачи: сетевые
Треклист:
01. Last Nite (Carlton) - 5:21
02. Blues Bird (Carlton) - 4:30
03. Song for Katie (Carlton) - 3:48
04. Frenchman's Flat (Carlton) - 4:32
05. Sleepwalk (S.Farina-J.Farina-A.Farina) - 4:36
06. Upper Kern (Carlton) - 7:32
07. 10:00 P.M. (Carlton) - 5:09
08. You Gotta Get It While You Can (Carlton) - 4:55
Состав:
Larry Carlton - guitar
David Sanborn - saxophone
Greg Mathieson - organ, Fender Rhodes, Prophet, acoustic piano
Don Freeman - Wurlitzer, Fender Rhodes
Brian Mann - Prophet, Moog
Carlos Rios - rhythm guitar
Terry Trotter - Fender Rhodes
Abraham Laboriel, Pops Powell - bass
John Ferraro, Steve Gadd, Jeffrey Porcaro - drums
Paulinho Da Costa - percussion
Recorded at Room 335, Hollywood, CA in 1982.
 
Лог создания рипа
Exact Audio Copy V1.0 beta 3 from 29. August 2011
EAC extraction logfile from 25. October 2014, 16:50
Larry Carlton / Sleepwalk
Used drive : HL-DT-STBDDVDRW CA10N Adapter: 0 ID: 2
Read mode : Secure
Utilize accurate stream : Yes
Defeat audio cache : Yes
Make use of C2 pointers : No
Read offset correction : 667
Overread into Lead-In and Lead-Out : No
Fill up missing offset samples with silence : Yes
Delete leading and trailing silent blocks : No
Null samples used in CRC calculations : Yes
Used interface : Native Win32 interface for Win NT & 2000
Gap handling : Appended to previous track
Used output format : User Defined Encoder
Selected bitrate : 1024 kBit/s
Quality : High
Add ID3 tag : No
Command line compressor : C:\Program Files (x86)\Exact Audio Copy\FLAC\FLAC.EXE
Additional command line options : -8 -V -T "ARTIST=%artist%" -T "TITLE=%title%" -T "ALBUM=%albumtitle%" -T "DATE=%year%" -T "TRACKNUMBER=%tracknr%" -T "GENRE=%genre%" -T "PERFORMER=%albuminterpret%" -T "COMPOSER=%composer%" %haslyrics%--tag-from-file=LYRICS="%lyricsfile%"%haslyrics% -T "ALBUMARTIST=%albumartist%" -T "DISCNUMBER=%cdnumber%" -T "TOTALDISCS=%totalcds%" -T "TOTALTRACKS=%numtracks%" -T "COMMENT=%comment%" %source% -o %dest%
TOC of the extracted CD
Track | Start | Length | Start sector | End sector
---------------------------------------------------------
1 | 0:00.00 | 5:21.37 | 0 | 24111
2 | 5:21.37 | 4:29.73 | 24112 | 44359
3 | 9:51.35 | 3:47.60 | 44360 | 61444
4 | 13:39.20 | 4:32.10 | 61445 | 81854
5 | 18:11.30 | 4:35.50 | 81855 | 102529
6 | 22:47.05 | 7:31.52 | 102530 | 136406
7 | 30:18.57 | 5:08.40 | 136407 | 159546
8 | 35:27.22 | 4:54.70 | 159547 | 181666
Track 1
Filename Z:\EAC Rips\Larry Carlton\Sleepwalk\01 - Last Nite.wav
Pre-gap length 0:00:02.00
Peak level 99.4 %
Extraction speed 2.8 X
Track quality 100.0 %
Test CRC E6581D9D
Copy CRC E6581D9D
Accurately ripped (confidence 3) [033F48A3] (AR v1)
Copy OK
Track 2
Filename Z:\EAC Rips\Larry Carlton\Sleepwalk\02 - Blues Bird.wav
Pre-gap length 0:00:02.15
Peak level 94.9 %
Extraction speed 3.0 X
Track quality 100.0 %
Test CRC D4C07032
Copy CRC D4C07032
Accurately ripped (confidence 3) [3C010F6D] (AR v1)
Copy OK
Track 3
Filename Z:\EAC Rips\Larry Carlton\Sleepwalk\03 - Song For Katie.wav
Pre-gap length 0:00:01.33
Peak level 100.0 %
Extraction speed 3.2 X
Track quality 100.0 %
Test CRC FC5949AE
Copy CRC FC5949AE
Accurately ripped (confidence 3) [0B760490] (AR v1)
Copy OK
Track 4
Filename Z:\EAC Rips\Larry Carlton\Sleepwalk\04 - Frenchman's Flat.wav
Pre-gap length 0:00:01.33
Peak level 92.4 %
Extraction speed 3.5 X
Track quality 100.0 %
Test CRC 4D139BC5
Copy CRC 4D139BC5
Accurately ripped (confidence 3) [89364A48] (AR v1)
Copy OK
Track 5
Filename Z:\EAC Rips\Larry Carlton\Sleepwalk\05 - Sleepwalk.wav
Pre-gap length 0:00:02.10
Peak level 91.6 %
Extraction speed 3.7 X
Track quality 100.0 %
Test CRC 68D4B9F8
Copy CRC 68D4B9F8
Accurately ripped (confidence 3) [06585F80] (AR v1)
Copy OK
Track 6
Filename Z:\EAC Rips\Larry Carlton\Sleepwalk\06 - Upper Kern.wav
Pre-gap length 0:00:01.03
Peak level 100.0 %
Extraction speed 4.0 X
Track quality 100.0 %
Test CRC B7D00A4B
Copy CRC B7D00A4B
Accurately ripped (confidence 3) [016677F7] (AR v1)
Copy OK
Track 7
Filename Z:\EAC Rips\Larry Carlton\Sleepwalk\07 - 10-00 P.M..wav
Pre-gap length 0:00:01.57
Peak level 100.0 %
Extraction speed 4.3 X
Track quality 100.0 %
Test CRC 9378755E
Copy CRC 9378755E
Accurately ripped (confidence 3) [84FD5B22] (AR v1)
Copy OK
Track 8
Filename Z:\EAC Rips\Larry Carlton\Sleepwalk\08 - You Gotta Get It While You Can.wav
Pre-gap length 0:00:02.72
Peak level 100.0 %
Extraction speed 4.4 X
Track quality 100.0 %
Test CRC AF0C0C51
Copy CRC AF0C0C51
Accurately ripped (confidence 3) [482D0F13] (AR v1)
Copy OK
All tracks accurately ripped
No errors occurred
End of status report
---- CUETools DB Plugin V2.1.3
[CTDB TOCID: U_mqLuyzUJN7lShwfVmCHkEkQOg-] found, Submit result: U_mqLuyzUJN7lShwfVmCHkEkQOg- has been confirmed
[e32c698a] (3/3) Accurately ripped
==== Log checksum 05FACC251F9F477996ED3C38824B38366540026ADDA603214F8E7ABF2139FFE3 ====
 
Содержание индексной карты (.CUE)
REM GENRE Jazz
REM DATE 1982
REM DISCID 5F097608
REM COMMENT "ExactAudioCopy v1.0b3"
PERFORMER "Larry Carlton"
TITLE "Sleepwalk"
FILE "01 - Last Nite.wav" WAVE
TRACK 01 AUDIO
TITLE "Last Nite"
PERFORMER "Larry Carlton"
INDEX 01 00:00:00
TRACK 02 AUDIO
TITLE "Blues Bird"
PERFORMER "Larry Carlton"
INDEX 00 05:19:22
FILE "02 - Blues Bird.wav" WAVE
INDEX 01 00:00:00
TRACK 03 AUDIO
TITLE "Song for Katie"
PERFORMER "Larry Carlton"
INDEX 00 04:28:40
FILE "03 - Song for Katie.wav" WAVE
INDEX 01 00:00:00
TRACK 04 AUDIO
TITLE "Frenchman's Flat"
PERFORMER "Larry Carlton"
INDEX 00 03:46:27
FILE "04 - Frenchman's Flat.wav" WAVE
INDEX 01 00:00:00
TRACK 05 AUDIO
TITLE "Sleepwalk"
PERFORMER "Larry Carlton"
INDEX 00 04:30:00
FILE "05 - Sleepwalk.wav" WAVE
INDEX 01 00:00:00
TRACK 06 AUDIO
TITLE "Upper Kern"
PERFORMER "Larry Carlton"
INDEX 00 04:34:47
FILE "06 - Upper Kern.wav" WAVE
INDEX 01 00:00:00
TRACK 07 AUDIO
TITLE "10:00 P.M."
PERFORMER "Larry Carlton"
INDEX 00 07:29:70
FILE "07 - 10-00 P.M..wav" WAVE
INDEX 01 00:00:00
TRACK 08 AUDIO
TITLE "You Gotta Get It While You Can"
PERFORMER "Larry Carlton"
INDEX 00 05:05:43
FILE "08 - You Gotta Get It While You Can.wav" WAVE
INDEX 01 00:00:00
 
Отчет CUETools
[CUETools log; Date: 26.10.2014 1:49:19; Version: 2.1.5]
[CTDB TOCID: U_mqLuyzUJN7lShwfVmCHkEkQOg-] found.
Track | CTDB Status
1 | (4/4) Accurately ripped
2 | (4/4) Accurately ripped
3 | (4/4) Accurately ripped
4 | (4/4) Accurately ripped
5 | (4/4) Accurately ripped
6 | (4/4) Accurately ripped
7 | (4/4) Accurately ripped
8 | (4/4) Accurately ripped
[AccurateRip ID: 000c1573-00512488-5f097608] found.
Track [ CRC | V2 ] Status
01 [033f48a3|c0f23497] (3+0/3) Accurately ripped
02 [3c010f6d|75f3c2fd] (3+0/3) Accurately ripped
03 [0b760490|025e1cb4] (3+0/3) Accurately ripped
04 [89364a48|55264436] (3+0/3) Accurately ripped
05 [06585f80|15edc8d3] (3+0/3) Accurately ripped
06 [016677f7|ed0ee086] (3+0/3) Accurately ripped
07 [84fd5b22|89af993f] (3+0/3) Accurately ripped
08 [482d0f13|7b5ba56b] (3+0/3) Accurately ripped
Track Peak [ CRC32 ] [W/O NULL] [ LOG ]
-- 100,0 [198311A0] [3F532E6B]
01 99,4 [E6581D9D] [0A62DF90] CRC32
02 94,9 [D4C07032] [44D0E7E7] CRC32
03 100,0 [FC5949AE] [61A5F47E] CRC32
04 92,4 [4D139BC5] [0D0DDA9B] CRC32
05 91,6 [68D4B9F8] [59207FD1] CRC32
06 100,0 [B7D00A4B] [2ADBF226] CRC32
07 100,0 [9378755E] [BF841FAC] CRC32
08 100,0 [AF0C0C51] [E3C3F2A9] CRC32
 
Review by Robert Taylor
Sleepwalk is slightly better than Strikes Twice thanks in part to the absence of Larry Carlton's toneless singing. "Last Nite" and "10:00 P.M." have become staples in Carlton's live set. The legendary Carlton feel is evident throughout this session, but "Blues Bird" stands as the high-water mark. "Sleepwalk" is played beautifully, almost preventing the listener from noticing the sap-heavy strings in the background. Carlton's faceless rhythm section does little to enhance the music (as is usually the case with his solo efforts), but his playing more than makes up for this. Despite sounding a bit dated, this is still worth exploring, especially for guitarists.
По всем вопросам пишите личное сообщение пользователю M0p94ok.
07:12
645
Нет комментариев. Ваш будет первым!