Вы используете незарегистрированную версию компонента "Вкладки"!

Поиск

(Crossover Jazz, Fusion, Smooth Jazz) [CD] Larry Carlton - Eight Times Up - 1983 (2006 Wounded Bird), FLAC (tracks+.cue), lossless

(Crossover Jazz, Fusion, Smooth Jazz) [CD] Larry Carlton - Eight Times Up - 1983 (2006 Wounded Bird), FLAC (tracks+.cue), lossless
Треклист:
Larry Carlton - Eight Times Up
Жанр: Crossover Jazz, Fusion, Smooth Jazz
Носитель: CD
Страна-производитель диска: США
Год издания: 1983 (2006)
Издатель (лейбл): Wounded Bird Records
Номер по каталогу: WOU 3012
Аудиокодек: FLAC (*.flac)
Тип рипа: tracks+.cue
Битрейт аудио: lossless
Продолжительность: 42:14
Источник (релизер): P_easy (what)
Наличие сканов в содержимом раздачи: да
Треклист:
01. Strikes Twice (Carlton) - 8:58
02. Salud (Laboriel) - 7:41
03. Blues Bird (Carlton) - 4:57
04. Black and White (Carlton) - 5:40
05. Upper Kern (Carlton) - 7:35
06. House on the Hill (Carlton) - 7:23
Состав:
Larry Carlton - guitar
Brian Mann - organ, synthesizers
Terry Trotter - Fender Rhodes
Abe Laboriel - bass
John Ferraro - drums
Paulinho Da Costa - percussion
Recorded live at Yubin Chokin Hall, Tokyo on January 28, 1982.
 
Лог создания рипа
Exact Audio Copy V1.0 beta 3 from 29. August 2011
EAC extraction logfile from 12. February 2012, 20:07
Larry Carlton / Eight Times Up
Used drive : SlimtypeDVD A DS8A4S Adapter: 0 ID: 1
Read mode : Secure
Utilize accurate stream : Yes
Defeat audio cache : Yes
Make use of C2 pointers : No
Read offset correction : 6
Overread into Lead-In and Lead-Out : No
Fill up missing offset samples with silence : Yes
Delete leading and trailing silent blocks : No
Null samples used in CRC calculations : Yes
Used interface : Native Win32 interface for Win NT & 2000
Gap handling : Appended to previous track
Used output format : User Defined Encoder
Selected bitrate : 1024 kBit/s
Quality : High
Add ID3 tag : No
Command line compressor : C:\Program Files (x86)\Exact Audio Copy\Flac\flac.exe
Additional command line options : -8 -V -T "ARTIST=%artist%" -T "TITLE=%title%" -T "ALBUM=%albumtitle%" -T "DATE=%year%" -T "TRACKNUMBER=%tracknr%" -T "GENRE=%genre%" -T "PERFORMER=%albuminterpret%" -T "COMPOSER=%composer%" %haslyrics%--tag-from-file=LYRICS="%lyricsfile%"%haslyrics% -T "ALBUMARTIST=%albumartist%" -T "DISCNUMBER=%cdnumber%" -T "TOTALDISCS=%totalcds%" -T "TOTALTRACKS=%numtracks%" -T "COMMENT=%comment%" %source% -o %dest%
TOC of the extracted CD
Track | Start | Length | Start sector | End sector
---------------------------------------------------------
1 | 0:00.00 | 8:58.32 | 0 | 40381
2 | 8:58.32 | 7:41.28 | 40382 | 74984
3 | 16:39.60 | 4:56.68 | 74985 | 97252
4 | 21:36.53 | 5:39.38 | 97253 | 122715
5 | 27:16.16 | 7:35.14 | 122716 | 156854
6 | 34:51.30 | 7:23.21 | 156855 | 190100
Track 1
Filename C:\Users\Pat\Documents\EACrips\Larry Carlton - Eight Times Up (1983){WOU3012} - FLAC\01 - Strikes Twice.wav
Pre-gap length 0:00:02.00
Peak level 96.4 %
Extraction speed 3.1 X
Track quality 100.0 %
Test CRC 2F315F16
Copy CRC 2F315F16
Accurately ripped (confidence 3) [15FD8875] (AR v1)
Copy OK
Track 2
Filename C:\Users\Pat\Documents\EACrips\Larry Carlton - Eight Times Up (1983){WOU3012} - FLAC\02 - Salud.wav
Peak level 96.4 %
Extraction speed 3.6 X
Track quality 100.0 %
Test CRC B67D9D73
Copy CRC B67D9D73
Accurately ripped (confidence 3) [CC46FAE9] (AR v1)
Copy OK
Track 3
Filename C:\Users\Pat\Documents\EACrips\Larry Carlton - Eight Times Up (1983){WOU3012} - FLAC\03 - Blues Bird.wav
Peak level 96.1 %
Extraction speed 3.8 X
Track quality 100.0 %
Test CRC 5450E203
Copy CRC 5450E203
Accurately ripped (confidence 3) [9E1BBFD3] (AR v1)
Copy OK
Track 4
Filename C:\Users\Pat\Documents\EACrips\Larry Carlton - Eight Times Up (1983){WOU3012} - FLAC\04 - Black And White.wav
Peak level 94.6 %
Extraction speed 4.2 X
Track quality 100.0 %
Test CRC C858C63E
Copy CRC C858C63E
Accurately ripped (confidence 3) [1AC09D40] (AR v1)
Copy OK
Track 5
Filename C:\Users\Pat\Documents\EACrips\Larry Carlton - Eight Times Up (1983){WOU3012} - FLAC\05 - Upper Kern.wav
Peak level 96.0 %
Extraction speed 4.2 X
Track quality 99.9 %
Test CRC 644FF383
Copy CRC 644FF383
Accurately ripped (confidence 3) [716A8EBB] (AR v1)
Copy OK
Track 6
Filename C:\Users\Pat\Documents\EACrips\Larry Carlton - Eight Times Up (1983){WOU3012} - FLAC\06 - House On The Hill.wav
Peak level 95.2 %
Extraction speed 4.9 X
Track quality 100.0 %
Test CRC 9B22D60B
Copy CRC 9B22D60B
Accurately ripped (confidence 3) [3E0D3093] (AR v1)
Copy OK
All tracks accurately ripped
No errors occurred
End of status report
---- CUETools DB Plugin V2.1.3
[CTDB TOCID: Zk6NSBMh3GU5Bz5EbCwcSBhzN6Y-] disk not present in database, Submit result: Zk6NSBMh3GU5Bz5EbCwcSBhzN6Y- has been uploaded
==== Log checksum 9C3D7FE523D71FC90AD6185D60465242A0F1AF7BEFF5B793EF140195E171B5C5 ====
 
Содержание индексной карты (.CUE)
REM GENRE Jazz
REM DATE 1983
REM DISCID 4109E606
REM COMMENT "ExactAudioCopy v1.0b3"
PERFORMER "Larry Carlton"
TITLE "Eight Times Up"
FILE "01 - Strikes Twice.wav" WAVE
TRACK 01 AUDIO
TITLE "Strikes Twice"
PERFORMER "Larry Carlton"
ISRC USWB10505433
INDEX 01 00:00:00
FILE "02 - Salud.wav" WAVE
TRACK 02 AUDIO
TITLE "Salud"
PERFORMER "Larry Carlton"
ISRC USWB10505434
INDEX 01 00:00:00
FILE "03 - Blues Bird.wav" WAVE
TRACK 03 AUDIO
TITLE "Blues Bird"
PERFORMER "Larry Carlton"
ISRC USWB10505435
INDEX 01 00:00:00
FILE "04 - Black and White.wav" WAVE
TRACK 04 AUDIO
TITLE "Black and White"
PERFORMER "Larry Carlton"
ISRC USWB10505436
INDEX 01 00:00:00
FILE "05 - Upper Kern.wav" WAVE
TRACK 05 AUDIO
TITLE "Upper Kern"
PERFORMER "Larry Carlton"
ISRC USWB10505437
INDEX 01 00:00:00
FILE "06 - House on the Hill.wav" WAVE
TRACK 06 AUDIO
TITLE "House on the Hill"
PERFORMER "Larry Carlton"
ISRC USWB10505438
INDEX 01 00:00:00
 
Отчет CUETools
[CUETools log; Date: 19.06.2014 1:25:40; Version: 2.1.4]
[CTDB TOCID: Zk6NSBMh3GU5Bz5EbCwcSBhzN6Y-] found.
Track | CTDB Status
1 | (2/2) Accurately ripped
2 | (2/2) Accurately ripped
3 | (2/2) Accurately ripped
4 | (2/2) Accurately ripped
5 | (2/2) Accurately ripped
6 | (2/2) Accurately ripped
[AccurateRip ID: 000a6934-0036a0f5-4109e606] found.
Track [ CRC | V2 ] Status
01 [15fd8875|f8c6bc6c] (3+0/3) Accurately ripped
02 [cc46fae9|b7136b16] (3+0/3) Accurately ripped
03 [9e1bbfd3|5e3f0c9a] (3+0/3) Accurately ripped
04 [1ac09d40|d4146e30] (3+0/3) Accurately ripped
05 [716a8ebb|3548a6d7] (3+0/3) Accurately ripped
06 [3e0d3093|8a67e6dc] (3+0/3) Accurately ripped
Track Peak [ CRC32 ] [W/O NULL] [ LOG ]
-- 96,4 [DF4A04B6] [09DA460F]
01 96,4 [2F315F16] [BB45D98C] CRC32
02 96,4 [B67D9D73] [D957E3EB] CRC32
03 96,1 [5450E203] [DD05BEB0] CRC32
04 94,6 [C858C63E] [B89CC711] CRC32
05 96,0 [644FF383] [937AC083] CRC32
06 95,2 [9B22D60B] [D86265F3] CRC32
 
Review by Rob Theakston
While touring between Strikes Twice and its follow-up, Sleepwalk, Larry Carlton recorded Eight Times Up live in Tokyo in early 1982. This was his second live album recorded in Japan in under a decade (following 1979's excellent Mr. 335 Live in Japan), and once again found Carlton and band in fine form playing smooth jazz-fusion. Songs from Strikes Twice and Sleepwalk largely comprise this six-song recording. And though the production and instrumentation definitely sound dated, Carlton's guitar playing is once again textbook smooth jazz, and makes up for that slight sonic nuance.
Any questions - support@pro-jazz.com. Есть вопросы - support@pro-jazz.com
07:30
314
Нет комментариев. Ваш будет первым!