Поиск

(Crossover Jazz, Fusion) Larry Carlton - Playing/Singing - 1973, FLAC (image+.cue), lossless

(Crossover Jazz, Fusion) Larry Carlton - Playing/Singing - 1973, FLAC (image+.cue), lossless
Треклист:
Larry Carlton - Playing/Singing
Жанр: Crossover Jazz, Fusion
Год выпуска диска: 1973
Производитель диска: Россия
Аудио кодек: FLAC
Тип рипа: image+.cue
Битрейт аудио: lossless
Продолжительность: 31:59
Трэклист:
1. Easy Evil (O'Day) - 4:57
2. I Cry Mercy (Smith, Smith) - 3:15
3. One More Chance (Furlong) - 3:13
4. With Respect To Coltrane (Scott) - 5:53
5. American Family (O'Day) - 4:03
6. Wavin' And Smilin' (Siller) - 3:01
7. Captain, Captain (Meskel) - 3:28
8. Free Way (Carlton) - 6:15
Доп. информация:
Исполнители:
Larry Carlton - Vocals, Guitar, Bass, Vibes, Percussion
Michael Omartian - Electric Piano, Piano, Organ, Synthesizer
Michael Mills - Percussion
Joe Osborne - Bass
Jim Gordon - Drums
Ron Tutt - Drums
Alan Estes - Percussion
Oma Drake - Background Vocals
Julia Tillman - Background Vocals
Maxine Willard - Background Vocals
Wilton Felder - Bass
Joe Sample - Electric Piano
Stix Hooper - Drums
Max Bennett - Bass
John Guerin - Drums
Reinie Press - Bass
Chris Neilson - Background Vocals
 
EAC Report
Exact Audio Copy V0.99 prebeta 4 from 23. January 2008
Отчёт EAC об извлечении, выполненном 6. января 2010, 20:53
Larry Carlton / Playing-Singing
Дисковод: ASUS DRW-1814BLT Adapter: 2 ID: 0
Режим чтения : Достоверность
Использование точного потока : Да
Отключение кэша аудио : Да
Использование указателей C2 : Нет
Коррекция смещения при чтении : 6
Способность читать области Lead-in и Lead-out : Нет
Заполнение пропущенных сэмплов тишиной : Да
Удаление блоков с тишиной в начале и конце : Нет
При вычислениях CRC использовались нулевые сэмплы : Да
Интерфейс : Встроенный Win32-интерфейс для Win NT/2000
Выходной формат : Пользовательский кодировщик
Выбранный битрейт : 256 kBit/s
Качество : Высокий
Добавление ID3-тэга : Нет
Утилита сжатия : D:\Program Files\Exact Audio Copy\Flac\flac.exe
Дополнительные параметры : -8 --delete-input-file -o "D:\CDImage.flac" -V %s
TOC извлечённого CD
Трек | Старт | Длительность | Начальный сектор | Конечный сектор
---------------------------------------------------------------------
1 | 0:00.00 | 4:10.27 | 0 | 18776
2 | 4:10.27 | 3:17.20 | 18777 | 33571
3 | 7:27.47 | 3:15.35 | 33572 | 48231
4 | 10:43.07 | 4:20.23 | 48232 | 67754
5 | 15:03.30 | 4:05.30 | 67755 | 86159
6 | 19:08.60 | 3:03.42 | 86160 | 99926
7 | 22:12.27 | 3:29.40 | 99927 | 115641
8 | 25:41.67 | 6:15.35 | 115642 | 143801
Характеристики диапазона извлечения и сообщения об ошибках
Выбранный диапазон
Имя файла D:\Larry Carlton - Playing-Singing.wav
Пиковый уровень 100.0 %
Качество диапазона 99.9 %
CRC теста F45A7888
CRC копии F45A7888
Копирование... OK
Ошибок не произошло
AccurateRip: сводка
Трек 1 точное извлечение (доверие 1) [2EC51640]
Трек 2 точное извлечение (доверие 1) [419E61EA]
Трек 3 точное извлечение (доверие 1) [17EE648E]
Трек 4 точное извлечение (доверие 1) [AEBC95DF]
Трек 5 точное извлечение (доверие 1) [B27731B8]
Трек 6 точное извлечение (доверие 1) [F767F7B9]
Трек 7 точное извлечение (доверие 1) [4729A05E]
Трек 8 точное извлечение (доверие 1) [E82AA677]
Все треки извлечены точно
Конец отчёта
По всем вопросам пишите личное сообщение пользователю M0p94ok.
09:51
466
Нет комментариев. Ваш будет первым!