Поиск

(Crossover Jazz, Funk, Fusion) The Brecker Brothers - Live - 1992, WavPack (image+.cue) lossless

Треклист:
The Brecker Brothers - Live
Жанр: Crossover Jazz, Funk, Fusion
Год издания диска: 1999 (rec. 1992)
Издатель (лейбл): JazzDoor
Номер по каталогу: JD 1248
Аудио кодек: WavPack (*.wv)
Тип рипа: image+.cue
Битрейт аудио: lossless
Продолжительность: 71:30
Источник (релизер): ffsf (hqshare)
Наличие сканов в содержимом раздачи: нет
Треклист:
01. Some Skunk Funk (Randy Brecker)
02. Common Ground (Mike Stern)
03. Spunch (Randy Brecker)
04. Song for Barry (Michael Brecker)
05. Spherical (Michael Brecker)
06. N.Y. Special (Michael Brecker)
Состав:
Michael Brecker - tenor sax, EWI
Randy Brecker - trumpet
Mike Stern - guitar
George Whitty - keybords
James Genius - bass
Dennis Chambers - drums
Recorded live in NYC, September 1992.
 
Лог создания рипа
Exact Audio Copy V1.0 beta 1 from 15. November 2010
EAC extraction logfile from 11. December 2010, 17:33
Brecker Brothers / The Brecker Brothers Live
Used drive : HL-DT-STDVDRAM GT20N Adapter: 0 ID: 0
Read mode : Secure
Utilize accurate stream : Yes
Defeat audio cache : Yes
Make use of C2 pointers : No
Read offset correction : 667
Overread into Lead-In and Lead-Out : No
Fill up missing offset samples with silence : Yes
Delete leading and trailing silent blocks : No
Null samples used in CRC calculations : Yes
Used interface : Installed external ASPI interface
Used output format : Internal WAV Routines
Sample format : 44.100 Hz; 16 Bit; Stereo
TOC of the extracted CD
Track | Start | Length | Start sector | End sector
---------------------------------------------------------
1 | 0:00.00 | 9:01.62 | 0 | 40636
2 | 9:01.62 | 14:09.63 | 40637 | 104374
3 | 23:11.50 | 8:06.50 | 104375 | 140874
4 | 31:18.25 | 21:51.22 | 140875 | 239221
5 | 53:09.47 | 12:31.50 | 239222 | 295596
6 | 65:41.22 | 5:49.05 | 295597 | 321776
Range status and errors
Selected range
Filename D:\EAC\Brecker Brothers - The Brecker Brothers Live.wav
Peak level 94.8 %
Extraction speed 0.3 X
Range quality 100.0 %
Test CRC D37297C2
Copy CRC D37297C2
Copy OK
No errors occurred
AccurateRip summary
Track 1 accurately ripped (confidence 9) [EB183DDE]
Track 2 accurately ripped (confidence 9) [E40896DC]
Track 3 accurately ripped (confidence 9) [48387C03]
Track 4 accurately ripped (confidence 8) [73A27EFD]
Track 5 accurately ripped (confidence 9) [2674EDCD]
Track 6 accurately ripped (confidence 9) [A9EA274A]
All tracks accurately ripped
End of status report
==== Log checksum F8EFEDB067EF30BB8510DAC8C41618CC313FA95185AB569F483E0DD7E758F879 ====
 
Об альбоме (сборнике)
Marvelous, great sound, all musicans at their best. I saw this line-up in Rotterdam, and it blew me away. With all respect to Dennis Chambers who is a great drummer I would have liked Dave Weckl. But this album is great anyway. When I just talked a second with Mike I told him about this album and he asked me how he sounded. I told "pretty good quality and a must for all Mike Stern fans". "Big smile" in return from Mike. It kicks off with a great old time Some Skunk Funk mainly featuring Michael and Randy. It funks man! Then a Mike Stern compostion Common Ground, beautiful ballad, although I would have liked to hear Mike's solo as Odds or Evens. Mike is opening, super chord progressions, great delay stuff, melancholic, about 5 minutes of excellence. As I said the best Mike Stern composition. In this performance it is featuring Michael and Randy. Then Spunch and then onto Song For Barry and Sherical both from The Return Of The Brecker Brothers. Man these songs are the business. It features all. But the soloing of Mike is incredible. I was at the North Sea Jazz Festival and the Statenhal went crazy after his solo. I have it on video and it still grips me. Song For Barry starts of with the amazing Michael Brecker on EWI. Man this is great! I do not know of any non-bootleg album where one can listen to this. The improvisation skills of the man are breath-taking. Electric solo guitar by Michael Brecker... picture it... It ends with the Mike Stern solo. Overdrive in the end. This kicks ass... Then Spherical... can't describe it. Listen to this stuff!! If you get a hand on this album... Buy it!... -- Ries van Schelven
01:19
637
Нет комментариев. Ваш будет первым!