Поиск

(Crossover Jazz, Funk, Fusion) The Brecker Brothers - Back to Back - 1975, WavPack (image+.cue) lossless

Треклист:
The Brecker Brothers / Back to Back
Жанр: Crossover Jazz, Funk, Fusion
Страна-производитель диска: Франция
Год издания диска: 1994 (rec. 1975)
Издатель (лейбл): BMG/Arista
Номер по каталогу: 74321221042
Аудио кодек: WavPack (*.wv)
Тип рипа: image+.cue
Битрейт аудио: lossless
Продолжительность: 48:44
Источник (релизер): ffsf (hqshare)
Наличие сканов в содержимом раздачи: да
Треклист:
01. Keep It Steady (Brecker Bump)(Brecker-Khan-Sanborn-Vandross)
02. If You Wanna Boogie... Forget It (Grolnick-Khan-Lee)
03. Lovely Lady (Brecker-Crossley-Willis)
04. Night Flight (Brecker)
05. Slick Stuff (Brecker)
06. Dig a Little Deeper (Grolnick-Lasley-Lee-Willis)
07. Grease Piece (Brecker-Brecker-Khan-Sanborn)
08. What Can a Miracle Do (Grolnick-Vandross)
09. I Love Wastin' Time with You (Brecker-Crossley-Willis)
Состав:
Randy Brecker - trumpet, electric trumpet, flugelhorn
Michael Brecker - tenor saxophone, flute
Dave Sanborn - alto saxophone
Don Grolnick - keyboards
Steve Khan - guitar
Will Lee - electric bass, lead vocals
Christopher Parker - drums
Steve Gadd - drums (#4,9)
Ralph MacDonald - percussion
Sammy Figueroa, Rafael Cruz - percussion (#4)
Lew Del Gatto - baritone saxophone (#2)
Dave Friedman - marimba (#6)
Dave Whitman - synthesizer programmer
Patti Austin, Luther Vandross. Robin Clark, Diane Sumler - vocals
Recorded in New York City in 1975.
 
Лог создания рипа
Exact Audio Copy V0.99 prebeta 4 from 23. January 2008
EAC extraction logfile from 26. September 2009, 15:14
The Brecker Brothers / Back To Back
Used drive : MATSHITADVD-ROM SR-8588 Adapter: 1 ID: 1
Read mode : Secure
Utilize accurate stream : Yes
Defeat audio cache : Yes
Make use of C2 pointers : No
Read offset correction : 103
Overread into Lead-In and Lead-Out : No
Fill up missing offset samples with silence : Yes
Delete leading and trailing silent blocks : No
Null samples used in CRC calculations : Yes
Used interface : Installed external ASPI interface
Used output format : Internal WAV Routines
Sample format : 44.100 Hz; 16 Bit; Stereo
TOC of the extracted CD
Track | Start | Length | Start sector | End sector
---------------------------------------------------------
1 | 0:00.32 | 6:29.00 | 32 | 29206
2 | 6:29.32 | 4:01.65 | 29207 | 47346
3 | 10:31.22 | 6:21.55 | 47347 | 75976
4 | 16:53.02 | 6:18.33 | 75977 | 104359
5 | 23:11.35 | 4:50.30 | 104360 | 126139
6 | 28:01.65 | 4:04.05 | 126140 | 144444
7 | 32:05.70 | 5:49.25 | 144445 | 170644
8 | 37:55.20 | 4:17.37 | 170645 | 189956
9 | 42:12.57 | 6:31.50 | 189957 | 219331
Range status and errors
Selected range
Filename C:\EAC\The Brecker Brothers - Back To Back.wav
Peak level 99.9 %
Range quality 100.0 %
Test CRC E7DBF3F9
Copy CRC E7DBF3F9
Copy OK
No errors occurred
AccurateRip summary
Track 1 cannot be verified as accurate (confidence 1) [5A25CDA5], AccurateRip returned [1B0056F1]
Track 2 cannot be verified as accurate (confidence 1) [A4AF141C], AccurateRip returned [0A192D08]
Track 3 cannot be verified as accurate (confidence 1) [A7A8F0C4], AccurateRip returned [440C3B20]
Track 4 cannot be verified as accurate (confidence 1) [8AAE5173], AccurateRip returned [DDA197D7]
Track 5 cannot be verified as accurate (confidence 1) [237DEFEE], AccurateRip returned [8F41D962]
Track 6 cannot be verified as accurate (confidence 1) [F795999D], AccurateRip returned [8E6B1FE9]
Track 7 cannot be verified as accurate (confidence 1) [C8E8F0E8], AccurateRip returned [567682E0]
Track 8 cannot be verified as accurate (confidence 1) [D80B47D7], AccurateRip returned [6ECD8A13]
Track 9 cannot be verified as accurate (confidence 1) [BFD7CF3E], AccurateRip returned [B7FFD14E]
No tracks could be verified as accurate
You may have a different pressing from the one(s) in the database
End of status report
 
CUETools log
[CUETools log; Date: 27.02.2011 3:04:33; Version: 2.0.9]
Pregap length 00:00:32.
[CTDB TOCID: ZhosvVm3lnvejVfz..fnF5ypysM-] disk not present in database.
[AccurateRip ID: 0010e5f2-007b0523-770b6c09] found.
Track [ CRC ] Status
01 [5a25cda5] (2/4) Accurately ripped
02 [a4af141c] (2/4) Accurately ripped
03 [a7a8f0c4] (2/4) Accurately ripped
04 [8aae5173] (2/4) Accurately ripped
05 [237defee] (2/4) Accurately ripped
06 [f795999d] (2/4) Accurately ripped
07 [c8e8f0e8] (2/4) Accurately ripped
08 [d80b47d7] (2/4) Accurately ripped
09 [bfd7cf3e] (2/4) Accurately ripped
Offsetted by 644:
01 [1b0056f1] (2/4) Accurately ripped
02 [0a192d08] (2/4) Accurately ripped
03 [440c3b20] (2/4) Accurately ripped
04 [dda197d7] (2/4) Accurately ripped
05 [8f41d962] (2/4) Accurately ripped
06 [8e6b1fe9] (2/4) Accurately ripped
07 [567682e0] (2/4) Accurately ripped
08 [6ecd8a13] (2/4) Accurately ripped
09 [b7ffd14e] (2/4) Accurately ripped
Track Peak [ CRC32 ] [W/O NULL] [ LOG ]
-- 99,9 [E7DBF3F9] [88790492] CRC32
01 99,9 [B3B43965] [4E50C6D9]
02 99,9 [B6807317] [B0729EDC]
03 99,9 [E31ED802] [921C466C]
04 99,9 [8DE71490] [F5292C38]
05 95,6 [26BEF797] [DBA159C6]
06 99,9 [6D6FF3D2] [0CE6EC36]
07 99,9 [C21B8F39] [9CAA2018]
08 91,0 [87CF7A8E] [04C43514]
09 99,9 [9A3E1ADD] [DC0BE215]
 
Об альбоме (сборнике)
The first time I heard The Brecker Brothers, I was listening to the radio to a dee-jay by the name of Perry Johnson. I ran out immediately the next day and bought the album. I couldn't stop playing it. I love the way they blow their horns. These boys are well seasoned and have played for many of todays hot artist's of this generation. No collection is complete without this one. If you love Jazz Fusion like I do, you will understand why it is a must to have it. The Brecker Brothers have been and will continue to around for many years to come. Throw it on and dance til you drop!! -- Gwendolyn Burnett (amazon)
A bossy, funky horn-fest that has the likes of brothers Randy and Michael Brecker and Dave Sanborn pumpin' them horns, the greats Steve Gadd and Ralph McDonald on drums and percussion, Steve Khan on guitar, and Will Lee on bass. Vocal sweetening is by the then HOT vocal contractors Patti Austin and Luther Vandross, et al...Hold on to your seats on "Night Flight" and "Grease Piece"...Drumming on "Night Flight" alone is enough to blow one's mind. Notice--playing like this has since become illegal in up to 15 states.(Just Kiddin'). Get it, now! -- yygsgsdrassil (amazon)
When I first opened the package I was upset by the cover on the disc. I played it anyway and I'm glad I did. Given the times of disco and experimental sounds this one is a stand out. I only gave it 4 stars because of the dated "If You Wanna Boogie...Forget It". I even forgave that song for the other material. Luther Vandross and Patti Austin's vocals are prevelant on this effort. They give it, along with the other background vocalists, that extra something that helps you to embrace it. It also didn't hurt that David Sanborn lent his saxophone prowess. I love him. -- N.G. "Music Enthusiast" (amazon)
Отличие от http://rutracker.org/forum/viewtopic.php?t=2544383 - импортный диск.
01:06
706
Нет комментариев. Ваш будет первым!