Вы используете незарегистрированную версию компонента "Вкладки"!

Поиск

(Crossover Jazz, Classical, Film Music, Vocal Jazz) [CD] Michel Legrand - Anthology (15CD) - 2013, FLAC (tracks+.cue), lossless

(Crossover Jazz, Classical, Film Music, Vocal Jazz) [CD] Michel Legrand - Anthology (15CD) - 2013, FLAC (tracks+.cue), lossless
Треклист:
Michel Legrand - Anthology
Жанр: Crossover Jazz, Classical, Film Music, Vocal Jazz
Носитель: CD
Страна-производитель диска: Франция
Год издания: 2013
Издатель (лейбл): Universal Music France
Номер по каталогу: 534 556 9
Аудиокодек: FLAC (*.flac)
Тип рипа: tracks+.cue
Битрейт аудио: lossless
Продолжительность: 17:54:24
Источник (релизер): dtromp (what)
Наличие сканов в содержимом раздачи: да
 
Об альбоме (сборнике)
Comment résumer une carrière qui englobe tous les genres musicaux, de la chanson à la musique classique et du jazz aux comédies musicales et autres bandes originales de films ? C'est un véritable casse-tête que de restreindre la palette de l'un des plus grands compositeurs français contemporains et l'un des rares à avoir su sensibiliser le coeur des Américains, allant jusqu'à recevoir trois Oscars d'autres récompenses anglophones, et ce, sans avoir jamais attiré l'attention sur son cas de l'Académie des Césars ou de celle des Victoires de la Musique, paradoxe français oblige. Michel Legrand n'est pourtant pas que l'auteur de l'indicatif sonore de RTL.
Soit, cette rétrospective qui se propose de faire le tour du propriétaire en 15 CD et quelques 312 morceaux est déjà colossale et, pour tout dire, indispensable à tout mélomane doté d'une focale musicale grand angle. Intelligemment conçue de façon thématique, l'anthologie se partage entre albums originaux et compilations de chansons ou thèmes instrumentaux regroupés par genre. Ainsi passe-t-on des petits bijoux que sont les premiers albums de jazz à la chanson et aux compositions pour le cinéma et autres travaux symphoniques.
Une première époque est bien ciblée avec sept albums regroupés en quatre CD : I Love Paris (best-seller de son époque, en 1954), Legrand in Rio (1958), Legrand Jazz (monumental, avec Miles Davis, John Coltrane et Bill Evans, 1958) et Legrand Big Band (hommage à Richard Rogers), suivi un peu plus tard par Communication '72 avec Stan Getz et de Bud Shank Plays Michel Legrand (1969).
Suit un extraordinaire florilège de son apport à la chanson par les voix de Claude Nougaro, Charles Trenet, Jacques Brel, Yves Montand, Juliette Gréco ou sa soeur Christiane Legrand. Après un sixième volume consacré à sa carrière d'interprète (Michel Legrand Chante et S'Accompagne / Sérénades du XXème Siècle) vient le must de ses collaborations avec le réalisateur Jacques Demy et les inoubliables mélodies de Lola, Les Parapluies de Cherbourg, Les Demoiselles de Rochefort, Peau d'Âne (tout cela entre 1968 et 1970) et Trois Places Pour le 26 avec Yves Montand (1988).
Le reste de la sélection vaut également pour ses autres contributions à la musique classique et au cinéma. Outre un album inédit, Jazzic in Classic pour harpe et orchestre symphonique, un autre volume contient ses pages symphoniques. Celui consacré aux interprètes internationaux englobe des compositions pour Barbra Streisand, Johnny Mathis, Petula Clark, Michael Jackson (« Happy ») ou Ray Charles tandis que le onzième volet se compose de chansons pour des spectacles musicaux (« Ubu 70 », « Jerk pataphysique », etc.) et le suivant aux musiques pour dessins animés (Oum le dauphin, Les Schtroumpfs).
Enfin, les trois derniers volumes se focalisent sur le cinéma d'un volume en hommage à Alain Delon (« Les Moulins de mon coeur », La Piscine) à un autre pour Joseph Losey (Le Messager, Maison de poupée) pour terminer en beauté avec les films de sa grande période américaine : Summer of '42, Portnoy's Complaint, Un Chateau en enfer, Cops and Robbers, Gable and Lombard...). Dans le livret de 72 pages qui accompagne ce trésor, le compositeur s'ouvre à titre exceptionnel sur ces choix et livre quelques anecdotes d'une carrière incomparable.
Loïc Picaud - Copyright 2014 Music Story
 
CD1 - I Love Paris / Legrand in Rio {75:34}
01. I Love Paris (2:48)
02. Mademoiselle De Paris (2:33)
03. Paris (1:58)
04. Les Feuilles Mortes (3:31)
05. Sous Les Ponts De Paris (1:15)
06. La Seine (4:08)
07. Paris In The Spring (2:02)
08. April In Paris (3:55)
09. A Paris (2:24)
10. La Vie En Rose (2:31)
11. Sous Le Ciel De Paris (2:46)
12. Paris, Je T'aime (1:39)
13. The Song From Moulin-Rouge (3:28)
14. The Last Time I Saw Paris (2:02)
15. I Love Paris (Reprise) (1:07)
16. Caravan (3:30)
17. Besame Mucho (3:00)
18. Siboney (4:11)
19. Vaya Con Dios (3:37)
20. Maria My Own (2:42)
21. La Ultima Noche (3:02)
22. Brazil (3:41)
23. Bahia (3:25)
24. Frenesi (2:57)
25. Perfidia (2:08)
26. Adios (2:45)
27. El Humahuaqueno (2:29)
 
Лог создания рипа
Exact Audio Copy V1.0 beta 3 from 29. August 2011
EAC extraction logfile from 21. February 2014, 11:17
Michel Legrand / Anthology CD1
Used drive : PLEXTOR DVDR PX-860A Adapter: 0 ID: 0
Read mode : Secure
Utilize accurate stream : Yes
Defeat audio cache : Yes
Make use of C2 pointers : No
Read offset correction : 96
Overread into Lead-In and Lead-Out : No
Fill up missing offset samples with silence : Yes
Delete leading and trailing silent blocks : No
Null samples used in CRC calculations : Yes
Used interface : Native Win32 interface for Win NT & 2000
Gap handling : Appended to previous track
Used output format : User Defined Encoder
Selected bitrate : 1024 kBit/s
Quality : High
Add ID3 tag : No
Command line compressor : C:\Program Files\Exact Audio Copy\Flac\flac.exe
Additional command line options : -8 -V -T "ARTIST=%artist%" -T "TITLE=%title%" -T "ALBUM=%albumtitle%" -T "DATE=%year%" -T "TRACKNUMBER=%tracknr%" -T "TOTALTRACKS=%numtracks%" -T "GENRE=%genre%" -T "ALBUMARTIST=%albumartist%" -T "ALBUM ARTIST=%albumartist%" -T "COMMENT=EAC Secure Mode, Test & Copy, AccurateRip, FLAC -8" %source%
TOC of the extracted CD
Track | Start | Length | Start sector | End sector
---------------------------------------------------------
1 | 0:00.00 | 2:47.54 | 0 | 12578
2 | 2:47.54 | 2:32.67 | 12579 | 24045
3 | 5:20.46 | 1:57.50 | 24046 | 32870
4 | 7:18.21 | 3:31.37 | 32871 | 48732
5 | 10:49.58 | 1:14.67 | 48733 | 54349
6 | 12:04.50 | 4:08.23 | 54350 | 72972
7 | 16:12.73 | 2:01.55 | 72973 | 82102
8 | 18:14.53 | 3:54.55 | 82103 | 99707
9 | 22:09.33 | 2:24.25 | 99708 | 110532
10 | 24:33.58 | 2:30.59 | 110533 | 121841
11 | 27:04.42 | 2:46.01 | 121842 | 134292
12 | 29:50.43 | 1:38.74 | 134293 | 141716
13 | 31:29.42 | 3:28.27 | 141717 | 157343
14 | 34:57.69 | 2:01.57 | 157344 | 166475
15 | 36:59.51 | 1:07.25 | 166476 | 171525
16 | 38:07.01 | 3:30.14 | 171526 | 187289
17 | 41:37.15 | 2:59.49 | 187290 | 200763
18 | 44:36.64 | 4:11.36 | 200764 | 219624
19 | 48:48.25 | 3:36.56 | 219625 | 235880
20 | 52:25.06 | 2:42.11 | 235881 | 248041
21 | 55:07.17 | 3:02.19 | 248042 | 261710
22 | 58:09.36 | 3:41.32 | 261711 | 278317
23 | 61:50.68 | 3:24.50 | 278318 | 293667
24 | 65:15.43 | 2:57.00 | 293668 | 306942
25 | 68:12.43 | 2:08.34 | 306943 | 316576
26 | 70:21.02 | 2:45.23 | 316577 | 328974
27 | 73:06.25 | 2:28.60 | 328975 | 340134
Track 1
Filename O:\DL\Michel Legrand - Anthology CD1 (2013) [FLAC]\01 - I Love Paris.wav
Pre-gap length 0:00:02.00
Peak level 70.2 %
Extraction speed 4.3 X
Track quality 100.0 %
Test CRC 211197C0
Copy CRC 211197C0
Track not present in AccurateRip database
Copy OK
Track 2
Filename O:\DL\Michel Legrand - Anthology CD1 (2013) [FLAC]\02 - Mademoiselle De Paris.wav
Peak level 65.3 %
Extraction speed 4.5 X
Track quality 100.0 %
Test CRC 48C6661C
Copy CRC 48C6661C
Track not present in AccurateRip database
Copy OK
Track 3
Filename O:\DL\Michel Legrand - Anthology CD1 (2013) [FLAC]\03 - Paris.wav
Peak level 50.6 %
Extraction speed 4.4 X
Track quality 100.0 %
Test CRC 6F90CBF6
Copy CRC 6F90CBF6
Track not present in AccurateRip database
Copy OK
Track 4
Filename O:\DL\Michel Legrand - Anthology CD1 (2013) [FLAC]\04 - Les Feuilles Mortes.wav
Peak level 74.1 %
Extraction speed 4.6 X
Track quality 99.9 %
Test CRC EC6C58A4
Copy CRC EC6C58A4
Track not present in AccurateRip database
Copy OK
Track 5
Filename O:\DL\Michel Legrand - Anthology CD1 (2013) [FLAC]\05 - Sous Les Ponts De Paris.wav
Peak level 52.9 %
Extraction speed 4.2 X
Track quality 100.0 %
Test CRC 188BDAD9
Copy CRC 188BDAD9
Track not present in AccurateRip database
Copy OK
Track 6
Filename O:\DL\Michel Legrand - Anthology CD1 (2013) [FLAC]\06 - La Seine.wav
Peak level 67.4 %
Extraction speed 5.1 X
Track quality 99.9 %
Test CRC 430F1E59
Copy CRC 430F1E59
Track not present in AccurateRip database
Copy OK
Track 7
Filename O:\DL\Michel Legrand - Anthology CD1 (2013) [FLAC]\07 - Paris In The Spring.wav
Peak level 58.5 %
Extraction speed 5.2 X
Track quality 100.0 %
Test CRC B7DF9610
Copy CRC B7DF9610
Track not present in AccurateRip database
Copy OK
Track 8
Filename O:\DL\Michel Legrand - Anthology CD1 (2013) [FLAC]\08 - April In Paris.wav
Peak level 68.0 %
Extraction speed 5.4 X
Track quality 99.9 %
Test CRC 0C9546F2
Copy CRC 0C9546F2
Track not present in AccurateRip database
Copy OK
Track 9
Filename O:\DL\Michel Legrand - Anthology CD1 (2013) [FLAC]\09 - A Paris.wav
Peak level 82.0 %
Extraction speed 5.8 X
Track quality 100.0 %
Test CRC BFB3AC50
Copy CRC BFB3AC50
Track not present in AccurateRip database
Copy OK
Track 10
Filename O:\DL\Michel Legrand - Anthology CD1 (2013) [FLAC]\10 - La Vie En Rose.wav
Peak level 61.6 %
Extraction speed 6.0 X
Track quality 100.0 %
Test CRC D18DA088
Copy CRC D18DA088
Track not present in AccurateRip database
Copy OK
Track 11
Filename O:\DL\Michel Legrand - Anthology CD1 (2013) [FLAC]\11 - Sous Le Ciel De Paris.wav
Peak level 62.1 %
Extraction speed 5.4 X
Track quality 99.9 %
Test CRC B00A1415
Copy CRC B00A1415
Track not present in AccurateRip database
Copy OK
Track 12
Filename O:\DL\Michel Legrand - Anthology CD1 (2013) [FLAC]\12 - Paris, Je T'aime.wav
Peak level 82.5 %
Extraction speed 5.7 X
Track quality 100.0 %
Test CRC A6F57152
Copy CRC A6F57152
Track not present in AccurateRip database
Copy OK
Track 13
Filename O:\DL\Michel Legrand - Anthology CD1 (2013) [FLAC]\13 - The Song From Moulin-Rouge.wav
Peak level 70.1 %
Extraction speed 1.1 X
Track quality 99.9 %
Test CRC 952748E4
Copy CRC 952748E4
Track not present in AccurateRip database
Copy OK
Track 14
Filename O:\DL\Michel Legrand - Anthology CD1 (2013) [FLAC]\14 - The Last Time I Saw Paris.wav
Peak level 83.2 %
Extraction speed 6.1 X
Track quality 100.0 %
Test CRC 4BC87189
Copy CRC 4BC87189
Track not present in AccurateRip database
Copy OK
Track 15
Filename O:\DL\Michel Legrand - Anthology CD1 (2013) [FLAC]\15 - I Love Paris (Reprise).wav
Peak level 88.2 %
Extraction speed 5.2 X
Track quality 100.0 %
Test CRC 7AE5459C
Copy CRC 7AE5459C
Track not present in AccurateRip database
Copy OK
Track 16
Filename O:\DL\Michel Legrand - Anthology CD1 (2013) [FLAC]\16 - Caravan.wav
Pre-gap length 0:00:04.66
Peak level 87.5 %
Extraction speed 7.0 X
Track quality 100.0 %
Test CRC 1E653268
Copy CRC 1E653268
Track not present in AccurateRip database
Copy OK
Track 17
Filename O:\DL\Michel Legrand - Anthology CD1 (2013) [FLAC]\17 - Besame Mucho.wav
Pre-gap length 0:00:02.00
Peak level 85.0 %
Extraction speed 7.1 X
Track quality 100.0 %
Test CRC CA588130
Copy CRC CA588130
Track not present in AccurateRip database
Copy OK
Track 18
Filename O:\DL\Michel Legrand - Anthology CD1 (2013) [FLAC]\18 - Siboney.wav
Pre-gap length 0:00:02.00
Peak level 92.2 %
Extraction speed 7.7 X
Track quality 100.0 %
Test CRC 174A5C06
Copy CRC 174A5C06
Track not present in AccurateRip database
Copy OK
Track 19
Filename O:\DL\Michel Legrand - Anthology CD1 (2013) [FLAC]\19 - Vaya Con Dios.wav
Pre-gap length 0:00:02.01
Peak level 79.2 %
Extraction speed 7.6 X
Track quality 100.0 %
Test CRC F6A8A101
Copy CRC F6A8A101
Track not present in AccurateRip database
Copy OK
Track 20
Filename O:\DL\Michel Legrand - Anthology CD1 (2013) [FLAC]\20 - Maria My Own.wav
Pre-gap length 0:00:02.00
Peak level 72.4 %
Extraction speed 7.3 X
Track quality 100.0 %
Test CRC 3CD4AAFA
Copy CRC 3CD4AAFA
Track not present in AccurateRip database
Copy OK
Track 21
Filename O:\DL\Michel Legrand - Anthology CD1 (2013) [FLAC]\21 - La Ultima Noche.wav
Pre-gap length 0:00:02.00
Peak level 86.6 %
Extraction speed 6.6 X
Track quality 99.9 %
Test CRC 614A06B4
Copy CRC 614A06B4
Track not present in AccurateRip database
Copy OK
Track 22
Filename O:\DL\Michel Legrand - Anthology CD1 (2013) [FLAC]\22 - Brazil.wav
Pre-gap length 0:00:02.00
Peak level 80.8 %
Extraction speed 7.1 X
Track quality 99.9 %
Test CRC A4148713
Copy CRC A4148713
Track not present in AccurateRip database
Copy OK
Track 23
Filename O:\DL\Michel Legrand - Anthology CD1 (2013) [FLAC]\23 - Bahia.wav
Pre-gap length 0:00:02.00
Peak level 84.7 %
Extraction speed 8.0 X
Track quality 100.0 %
Test CRC 874EB135
Copy CRC 874EB135
Track not present in AccurateRip database
Copy OK
Track 24
Filename O:\DL\Michel Legrand - Anthology CD1 (2013) [FLAC]\24 - Frenesi.wav
Pre-gap length 0:00:02.04
Peak level 84.2 %
Extraction speed 7.8 X
Track quality 100.0 %
Test CRC DCDDC713
Copy CRC DCDDC713
Track not present in AccurateRip database
Copy OK
Track 25
Filename O:\DL\Michel Legrand - Anthology CD1 (2013) [FLAC]\25 - Perfidia.wav
Pre-gap length 0:00:02.00
Peak level 80.7 %
Extraction speed 6.3 X
Track quality 99.9 %
Test CRC AA8075C3
Copy CRC AA8075C3
Track not present in AccurateRip database
Copy OK
Track 26
Filename O:\DL\Michel Legrand - Anthology CD1 (2013) [FLAC]\26 - Adios.wav
Pre-gap length 0:00:02.00
Peak level 77.5 %
Extraction speed 6.9 X
Track quality 99.9 %
Test CRC 8E85F9D9
Copy CRC 8E85F9D9
Track not present in AccurateRip database
Copy OK
Track 27
Filename O:\DL\Michel Legrand - Anthology CD1 (2013) [FLAC]\27 - El Humahuaqueno.wav
Pre-gap length 0:00:02.00
Peak level 83.5 %
Extraction speed 7.4 X
Track quality 100.0 %
Test CRC A7307249
Copy CRC A7307249
Track not present in AccurateRip database
Copy OK
None of the tracks are present in the AccurateRip database
No errors occurred
End of status report
---- CUETools DB Plugin V2.1.3
[CTDB TOCID: Lu7zuAOQBpKMfhRy6xCwEBaObg8-] found, Submit result: Lu7zuAOQBpKMfhRy6xCwEBaObg8- has been confirmed
[458572dd] (2/2) Accurately ripped
==== Log checksum 00188C79E8DB71DFAE84F7FBEC79A6482B560411E8E4EA15CE851DD926C60F8C ====
 
Содержание индексной карты (.CUE)
REM GENRE Instrumental
REM DATE 2013
REM DISCID 9F11B71B
REM COMMENT "ExactAudioCopy v1.0b3"
PERFORMER "Michel Legrand"
TITLE "Anthology CD1"
FILE "01 - I Love Paris.wav" WAVE
TRACK 01 AUDIO
TITLE "I Love Paris"
PERFORMER "Michel Legrand"
INDEX 01 00:00:00
FILE "02 - Mademoiselle De Paris.wav" WAVE
TRACK 02 AUDIO
TITLE "Mademoiselle De Paris"
PERFORMER "Michel Legrand"
INDEX 01 00:00:00
FILE "03 - Paris.wav" WAVE
TRACK 03 AUDIO
TITLE "Paris"
PERFORMER "Michel Legrand"
INDEX 01 00:00:00
FILE "04 - Les Feuilles Mortes.wav" WAVE
TRACK 04 AUDIO
TITLE "Les Feuilles Mortes"
PERFORMER "Michel Legrand"
INDEX 01 00:00:00
FILE "05 - Sous Les Ponts De Paris.wav" WAVE
TRACK 05 AUDIO
TITLE "Sous Les Ponts De Paris"
PERFORMER "Michel Legrand"
INDEX 01 00:00:00
FILE "06 - La Seine.wav" WAVE
TRACK 06 AUDIO
TITLE "La Seine"
PERFORMER "Michel Legrand"
INDEX 01 00:00:00
FILE "07 - Paris In The Spring.wav" WAVE
TRACK 07 AUDIO
TITLE "Paris In The Spring"
PERFORMER "Michel Legrand"
INDEX 01 00:00:00
FILE "08 - April In Paris.wav" WAVE
TRACK 08 AUDIO
TITLE "April In Paris"
PERFORMER "Michel Legrand"
INDEX 01 00:00:00
FILE "09 - A Paris.wav" WAVE
TRACK 09 AUDIO
TITLE "A Paris"
PERFORMER "Michel Legrand"
INDEX 01 00:00:00
FILE "10 - La Vie En Rose.wav" WAVE
TRACK 10 AUDIO
TITLE "La Vie En Rose"
PERFORMER "Michel Legrand"
INDEX 01 00:00:00
FILE "11 - Sous Le Ciel De Paris.wav" WAVE
TRACK 11 AUDIO
TITLE "Sous Le Ciel De Paris"
PERFORMER "Michel Legrand"
INDEX 01 00:00:00
FILE "12 - Paris, Je T'aime.wav" WAVE
TRACK 12 AUDIO
TITLE "Paris, Je T'aime"
PERFORMER "Michel Legrand"
INDEX 01 00:00:00
FILE "13 - The Song From Moulin-Rouge.wav" WAVE
TRACK 13 AUDIO
TITLE "The Song From Moulin-Rouge"
PERFORMER "Michel Legrand"
INDEX 01 00:00:00
FILE "14 - The Last Time I Saw Paris.wav" WAVE
TRACK 14 AUDIO
TITLE "The Last Time I Saw Paris"
PERFORMER "Michel Legrand"
INDEX 01 00:00:00
FILE "15 - I Love Paris (Reprise).wav" WAVE
TRACK 15 AUDIO
TITLE "I Love Paris (Reprise)"
PERFORMER "Michel Legrand"
INDEX 01 00:00:00
TRACK 16 AUDIO
TITLE "Caravan"
PERFORMER "Michel Legrand"
INDEX 00 01:02:50
FILE "16 - Caravan.wav" WAVE
INDEX 01 00:00:00
TRACK 17 AUDIO
TITLE "Besame Mucho"
PERFORMER "Michel Legrand"
INDEX 00 03:28:14
FILE "17 - Besame Mucho.wav" WAVE
INDEX 01 00:00:00
TRACK 18 AUDIO
TITLE "Siboney"
PERFORMER "Michel Legrand"
INDEX 00 02:57:49
FILE "18 - Siboney.wav" WAVE
INDEX 01 00:00:00
TRACK 19 AUDIO
TITLE "Vaya Con Dios"
PERFORMER "Michel Legrand"
INDEX 00 04:09:35
FILE "19 - Vaya Con Dios.wav" WAVE
INDEX 01 00:00:00
TRACK 20 AUDIO
TITLE "Maria My Own"
PERFORMER "Michel Legrand"
INDEX 00 03:34:56
FILE "20 - Maria My Own.wav" WAVE
INDEX 01 00:00:00
TRACK 21 AUDIO
TITLE "La Ultima Noche"
PERFORMER "Michel Legrand"
INDEX 00 02:40:11
FILE "21 - La Ultima Noche.wav" WAVE
INDEX 01 00:00:00
TRACK 22 AUDIO
TITLE "Brazil"
PERFORMER "Michel Legrand"
INDEX 00 03:00:19
FILE "22 - Brazil.wav" WAVE
INDEX 01 00:00:00
TRACK 23 AUDIO
TITLE "Bahia"
PERFORMER "Michel Legrand"
INDEX 00 03:39:32
FILE "23 - Bahia.wav" WAVE
INDEX 01 00:00:00
TRACK 24 AUDIO
TITLE "Frenesi"
PERFORMER "Michel Legrand"
INDEX 00 03:22:47
FILE "24 - Frenesi.wav" WAVE
INDEX 01 00:00:00
TRACK 25 AUDIO
TITLE "Perfidia"
PERFORMER "Michel Legrand"
INDEX 00 02:55:00
FILE "25 - Perfidia.wav" WAVE
INDEX 01 00:00:00
TRACK 26 AUDIO
TITLE "Adios"
PERFORMER "Michel Legrand"
INDEX 00 02:06:34
FILE "26 - Adios.wav" WAVE
INDEX 01 00:00:00
TRACK 27 AUDIO
TITLE "El Humahuaqueno"
PERFORMER "Michel Legrand"
INDEX 00 02:43:23
FILE "27 - El Humahuaqueno.wav" WAVE
INDEX 01 00:00:00
 
CD2 - Legrand Jazz / Michel Legrand Big Band Plays Richard Rodgers {75:11}
01. The Jitterbug Waltz (5:20)
02. Stompin' At The Savoy (3:48)
03. 'Round Midnight (3:01)
04. DJango (4:16)
05. A Night In Tunisia (5:53)
06. In a mist (3:20)
07. Blue and sentimental (3:26)
08. Don't get around much anymore (2:36)
09. Wild man blues (3:24)
10. Nuages (2:24)
11. Rosetta (7:23)
12. Falling in love with love (2:33)
13. People will say we're in love (1:41)
14. Bali hai (2:53)
15. Have you met miss jones (2:29)
16. It might as weel be spring (2:35)
17. This can't be love (2:43)
18. Some enchanted evening (2:35)
19. There's a small hotel (2:31)
20. Getting to know you (2:31)
21. My funny Valentine (2:39)
22. The lady is a tramp (5:10)
 
Лог создания рипа
Exact Audio Copy V1.0 beta 3 from 29. August 2011
EAC extraction logfile from 21. February 2014, 12:19
Michel Legrand / Anthology CD2
Used drive : PLEXTOR DVDR PX-860A Adapter: 0 ID: 0
Read mode : Secure
Utilize accurate stream : Yes
Defeat audio cache : Yes
Make use of C2 pointers : No
Read offset correction : 96
Overread into Lead-In and Lead-Out : No
Fill up missing offset samples with silence : Yes
Delete leading and trailing silent blocks : No
Null samples used in CRC calculations : Yes
Used interface : Native Win32 interface for Win NT & 2000
Gap handling : Appended to previous track
Used output format : User Defined Encoder
Selected bitrate : 1024 kBit/s
Quality : High
Add ID3 tag : No
Command line compressor : C:\Program Files\Exact Audio Copy\Flac\flac.exe
Additional command line options : -8 -V -T "ARTIST=%artist%" -T "TITLE=%title%" -T "ALBUM=%albumtitle%" -T "DATE=%year%" -T "TRACKNUMBER=%tracknr%" -T "TOTALTRACKS=%numtracks%" -T "GENRE=%genre%" -T "ALBUMARTIST=%albumartist%" -T "ALBUM ARTIST=%albumartist%" -T "COMMENT=EAC Secure Mode, Test & Copy, AccurateRip, FLAC -8" %source%
TOC of the extracted CD
Track | Start | Length | Start sector | End sector
---------------------------------------------------------
1 | 0:00.00 | 5:19.70 | 0 | 23994
2 | 5:19.70 | 3:47.61 | 23995 | 41080
3 | 9:07.56 | 3:00.52 | 41081 | 54632
4 | 12:08.33 | 4:15.57 | 54633 | 73814
5 | 16:24.15 | 5:52.46 | 73815 | 100260
6 | 22:16.61 | 3:20.16 | 100261 | 115276
7 | 25:37.02 | 3:25.39 | 115277 | 130690
8 | 29:02.41 | 2:35.61 | 130691 | 142376
9 | 31:38.27 | 3:23.63 | 142377 | 157664
10 | 35:02.15 | 2:23.58 | 157665 | 168447
11 | 37:25.73 | 7:23.26 | 168448 | 201698
12 | 44:49.24 | 2:32.41 | 201699 | 213139
13 | 47:21.65 | 1:40.66 | 213140 | 220705
14 | 49:02.56 | 2:52.39 | 220706 | 233644
15 | 51:55.20 | 2:28.54 | 233645 | 244798
16 | 54:23.74 | 2:35.21 | 244799 | 256444
17 | 56:59.20 | 2:42.53 | 256445 | 268647
18 | 59:41.73 | 2:34.65 | 268648 | 280262
19 | 62:16.63 | 2:31.03 | 280263 | 291590
20 | 64:47.66 | 2:31.10 | 291591 | 302925
21 | 67:19.01 | 2:38.62 | 302926 | 314837
22 | 69:57.63 | 5:10.05 | 314838 | 338092
Track 1
Filename O:\DL\Michel Legrand - Anthology CD2 (2013) [FLAC]\01 - The Jitterbug Waltz.wav
Pre-gap length 0:00:02.00
Peak level 77.8 %
Extraction speed 4.9 X
Track quality 100.0 %
Test CRC A7160660
Copy CRC A7160660
Track not present in AccurateRip database
Copy OK
Track 2
Filename O:\DL\Michel Legrand - Anthology CD2 (2013) [FLAC]\02 - Stompin' At The Savoy.wav
Pre-gap length 0:00:02.09
Peak level 97.7 %
Extraction speed 5.1 X
Track quality 100.0 %
Test CRC CCBEC7C9
Copy CRC CCBEC7C9
Track not present in AccurateRip database
Copy OK
Track 3
Filename O:\DL\Michel Legrand - Anthology CD2 (2013) [FLAC]\03 - 'Round Midnight.wav
Pre-gap length 0:00:02.01
Peak level 63.0 %
Extraction speed 5.2 X
Track quality 100.0 %
Test CRC 226D8EAA
Copy CRC 226D8EAA
Track not present in AccurateRip database
Copy OK
Track 4
Filename O:\DL\Michel Legrand - Anthology CD2 (2013) [FLAC]\04 - DJango.wav
Pre-gap length 0:00:01.77
Peak level 70.4 %
Extraction speed 5.8 X
Track quality 100.0 %
Test CRC 811D2A13
Copy CRC 811D2A13
Track not present in AccurateRip database
Copy OK
Track 5
Filename O:\DL\Michel Legrand - Anthology CD2 (2013) [FLAC]\05 - A Night In Tunisia.wav
Pre-gap length 0:00:01.82
Peak level 97.7 %
Extraction speed 6.4 X
Track quality 100.0 %
Test CRC 1D695401
Copy CRC 1D695401
Track not present in AccurateRip database
Copy OK
Track 6
Filename O:\DL\Michel Legrand - Anthology CD2 (2013) [FLAC]\06 - In a mist.wav
Pre-gap length 0:00:01.70
Peak level 97.6 %
Extraction speed 6.2 X
Track quality 100.0 %
Test CRC D033E750
Copy CRC D033E750
Track not present in AccurateRip database
Copy OK
Track 7
Filename O:\DL\Michel Legrand - Anthology CD2 (2013) [FLAC]\07 - Blue and sentimental.wav
Pre-gap length 0:00:02.05
Peak level 72.6 %
Extraction speed 5.7 X
Track quality 99.9 %
Test CRC A3F23F69
Copy CRC A3F23F69
Track not present in AccurateRip database
Copy OK
Track 8
Filename O:\DL\Michel Legrand - Anthology CD2 (2013) [FLAC]\08 - Don't get around much anymore.wav
Pre-gap length 0:00:02.04
Peak level 77.7 %
Extraction speed 6.3 X
Track quality 100.0 %
Test CRC 5E4D460D
Copy CRC 5E4D460D
Track not present in AccurateRip database
Copy OK
Track 9
Filename O:\DL\Michel Legrand - Anthology CD2 (2013) [FLAC]\09 - Wild man blues.wav
Pre-gap length 0:00:02.38
Peak level 74.6 %
Extraction speed 5.9 X
Track quality 99.9 %
Test CRC 8DFA6D99
Copy CRC 8DFA6D99
Track not present in AccurateRip database
Copy OK
Track 10
Filename O:\DL\Michel Legrand - Anthology CD2 (2013) [FLAC]\10 - Nuages.wav
Pre-gap length 0:00:02.22
Peak level 79.4 %
Extraction speed 5.5 X
Track quality 99.9 %
Test CRC BAC039D3
Copy CRC BAC039D3
Track not present in AccurateRip database
Copy OK
Track 11
Filename O:\DL\Michel Legrand - Anthology CD2 (2013) [FLAC]\11 - Rosetta.wav
Pre-gap length 0:00:01.73
Peak level 97.1 %
Extraction speed 7.3 X
Track quality 100.0 %
Test CRC F7DC26CD
Copy CRC F7DC26CD
Track not present in AccurateRip database
Copy OK
Track 12
Filename O:\DL\Michel Legrand - Anthology CD2 (2013) [FLAC]\12 - Falling in love with love.wav
Pre-gap length 0:00:04.65
Peak level 71.4 %
Extraction speed 7.1 X
Track quality 100.0 %
Test CRC D1EDB22C
Copy CRC D1EDB22C
Track not present in AccurateRip database
Copy OK
Track 13
Filename O:\DL\Michel Legrand - Anthology CD2 (2013) [FLAC]\13 - People will say we're in love.wav
Pre-gap length 0:00:02.73
Peak level 85.3 %
Extraction speed 5.1 X
Track quality 99.8 %
Test CRC A2B04481
Copy CRC A2B04481
Track not present in AccurateRip database
Copy OK
Track 14
Filename O:\DL\Michel Legrand - Anthology CD2 (2013) [FLAC]\14 - Bali hai.wav
Pre-gap length 0:00:03.57
Peak level 80.4 %
Extraction speed 7.4 X
Track quality 100.0 %
Test CRC BDDEE303
Copy CRC BDDEE303
Track not present in AccurateRip database
Copy OK
Track 15
Filename O:\DL\Michel Legrand - Anthology CD2 (2013) [FLAC]\15 - Have you met miss jones.wav
Pre-gap length 0:00:03.44
Peak level 84.8 %
Extraction speed 6.1 X
Track quality 99.9 %
Test CRC 410593EB
Copy CRC 410593EB
Track not present in AccurateRip database
Copy OK
Track 16
Filename O:\DL\Michel Legrand - Anthology CD2 (2013) [FLAC]\16 - It might as weel be spring.wav
Pre-gap length 0:00:03.12
Peak level 85.4 %
Extraction speed 7.5 X
Track quality 100.0 %
Test CRC 3D8E3F8D
Copy CRC 3D8E3F8D
Track not present in AccurateRip database
Copy OK
Track 17
Filename O:\DL\Michel Legrand - Anthology CD2 (2013) [FLAC]\17 - This can't be love.wav
Pre-gap length 0:00:01.53
Peak level 85.4 %
Extraction speed 7.2 X
Track quality 100.0 %
Test CRC 39E531C7
Copy CRC 39E531C7
Track not present in AccurateRip database
Copy OK
Track 18
Filename O:\DL\Michel Legrand - Anthology CD2 (2013) [FLAC]\18 - Some enchanted evening.wav
Pre-gap length 0:00:01.50
Peak level 85.4 %
Extraction speed 7.5 X
Track quality 100.0 %
Test CRC 58B46E60
Copy CRC 58B46E60
Track not present in AccurateRip database
Copy OK
Track 19
Filename O:\DL\Michel Legrand - Anthology CD2 (2013) [FLAC]\19 - There's a small hotel.wav
Pre-gap length 0:00:02.93
Peak level 85.4 %
Extraction speed 6.6 X
Track quality 99.9 %
Test CRC 35CEF8B0
Copy CRC 35CEF8B0
Track not present in AccurateRip database
Copy OK
Track 20
Filename O:\DL\Michel Legrand - Anthology CD2 (2013) [FLAC]\20 - Getting to know you.wav
Pre-gap length 0:00:03.68
Peak level 85.4 %
Extraction speed 7.9 X
Track quality 100.0 %
Test CRC CC633724
Copy CRC CC633724
Track not present in AccurateRip database
Copy OK
Track 21
Filename O:\DL\Michel Legrand - Anthology CD2 (2013) [FLAC]\21 - My funny Valentine.wav
Pre-gap length 0:00:03.93
Peak level 85.4 %
Extraction speed 8.0 X
Track quality 100.0 %
Test CRC 732F0177
Copy CRC 732F0177
Track not present in AccurateRip database
Copy OK
Track 22
Filename O:\DL\Michel Legrand - Anthology CD2 (2013) [FLAC]\22 - The lady is a tramp.wav
Pre-gap length 0:00:02.80
Peak level 85.4 %
Extraction speed 7.9 X
Track quality 99.9 %
Test CRC E7388963
Copy CRC E7388963
Track not present in AccurateRip database
Copy OK
None of the tracks are present in the AccurateRip database
No errors occurred
End of status report
---- CUETools DB Plugin V2.1.3
[CTDB TOCID: KoofzM1vEXfZAoK1IKeQ42s_bic-] found, Submit result: KoofzM1vEXfZAoK1IKeQ42s_bic- has been confirmed
[e281f304] (2/2) Accurately ripped
==== Log checksum E8421A8DCAD571E84692F6582325677D0F38D0DA68573F44E29CB165D15A3D60 ====
 
Содержание индексной карты (.CUE)
REM GENRE Jazz
REM DATE 2013
REM DISCID 4D119B16
REM COMMENT "ExactAudioCopy v1.0b3"
PERFORMER "Michel Legrand"
TITLE "Anthology CD2"
FILE "01 - The Jitterbug Waltz.wav" WAVE
TRACK 01 AUDIO
TITLE "The Jitterbug Waltz"
PERFORMER "Michel Legrand"
INDEX 01 00:00:00
TRACK 02 AUDIO
TITLE "Stompin' At The Savoy"
PERFORMER "Michel Legrand"
INDEX 00 05:17:63
FILE "02 - Stompin' At The Savoy.wav" WAVE
INDEX 01 00:00:00
TRACK 03 AUDIO
TITLE "'Round Midnight"
PERFORMER "Michel Legrand"
INDEX 00 03:45:60
FILE "03 - 'Round Midnight.wav" WAVE
INDEX 01 00:00:00
TRACK 04 AUDIO
TITLE "DJango"
PERFORMER "Michel Legrand"
INDEX 00 02:58:69
FILE "04 - DJango.wav" WAVE
INDEX 01 00:00:00
TRACK 05 AUDIO
TITLE "A Night In Tunisia"
PERFORMER "Michel Legrand"
INDEX 00 04:13:70
FILE "05 - A Night In Tunisia.wav" WAVE
INDEX 01 00:00:00
TRACK 06 AUDIO
TITLE "In a mist"
PERFORMER "Michel Legrand"
INDEX 00 05:50:68
FILE "06 - In a mist.wav" WAVE
INDEX 01 00:00:00
TRACK 07 AUDIO
TITLE "Blue and sentimental"
PERFORMER "Michel Legrand"
INDEX 00 03:18:12
FILE "07 - Blue and sentimental.wav" WAVE
INDEX 01 00:00:00
TRACK 08 AUDIO
TITLE "Don't get around much anymore"
PERFORMER "Michel Legrand"
INDEX 00 03:23:36
FILE "08 - Don't get around much anymore.wav" WAVE
INDEX 01 00:00:00
TRACK 09 AUDIO
TITLE "Wild man blues"
PERFORMER "Michel Legrand"
INDEX 00 02:33:32
FILE "09 - Wild man blues.wav" WAVE
INDEX 01 00:00:00
TRACK 10 AUDIO
TITLE "Nuages"
PERFORMER "Michel Legrand"
INDEX 00 03:21:46
FILE "10 - Nuages.wav" WAVE
INDEX 01 00:00:00
TRACK 11 AUDIO
TITLE "Rosetta"
PERFORMER "Michel Legrand"
INDEX 00 02:22:03
FILE "11 - Rosetta.wav" WAVE
INDEX 01 00:00:00
TRACK 12 AUDIO
TITLE "Falling in love with love"
PERFORMER "Michel Legrand"
INDEX 00 07:18:52
FILE "12 - Falling in love with love.wav" WAVE
INDEX 01 00:00:00
TRACK 13 AUDIO
TITLE "People will say we're in love"
PERFORMER "Michel Legrand"
INDEX 00 02:29:61
FILE "13 - People will say we're in love.wav" WAVE
INDEX 01 00:00:00
TRACK 14 AUDIO
TITLE "Bali hai"
PERFORMER "Michel Legrand"
INDEX 00 01:37:23
FILE "14 - Bali hai.wav" WAVE
INDEX 01 00:00:00
TRACK 15 AUDIO
TITLE "Have you met miss jones"
PERFORMER "Michel Legrand"
INDEX 00 02:49:06
FILE "15 - Have you met miss jones.wav" WAVE
INDEX 01 00:00:00
TRACK 16 AUDIO
TITLE "It might as weel be spring"
PERFORMER "Michel Legrand"
INDEX 00 02:25:45
FILE "16 - It might as weel be spring.wav" WAVE
INDEX 01 00:00:00
TRACK 17 AUDIO
TITLE "This can't be love"
PERFORMER "Michel Legrand"
INDEX 00 02:33:56
FILE "17 - This can't be love.wav" WAVE
INDEX 01 00:00:00
TRACK 18 AUDIO
TITLE "Some enchanted evening"
PERFORMER "Michel Legrand"
INDEX 00 02:41:15
FILE "18 - Some enchanted evening.wav" WAVE
INDEX 01 00:00:00
TRACK 19 AUDIO
TITLE "There's a small hotel"
PERFORMER "Michel Legrand"
INDEX 00 02:31:70
FILE "19 - There's a small hotel.wav" WAVE
INDEX 01 00:00:00
TRACK 20 AUDIO
TITLE "Getting to know you"
PERFORMER "Michel Legrand"
INDEX 00 02:27:27
FILE "20 - Getting to know you.wav" WAVE
INDEX 01 00:00:00
TRACK 21 AUDIO
TITLE "My funny Valentine"
PERFORMER "Michel Legrand"
INDEX 00 02:27:15
FILE "21 - My funny Valentine.wav" WAVE
INDEX 01 00:00:00
TRACK 22 AUDIO
TITLE "The lady is a tramp"
PERFORMER "Michel Legrand"
INDEX 00 02:36:02
FILE "22 - The lady is a tramp.wav" WAVE
INDEX 01 00:00:00
 
CD3 - Hommage a / Tribute to George Gershwin {65:07}
01. Rhapsody In Blue (19:19)
02. An American In Paris (20:11)
03. Prelude Allegro Ben Ritmato E Deciso (1:25)
04. Prelude Andante Con Moto E Poco Rubato (2:39)
05. Prelude Allegro Ben Ritmato E Deciso (1:15)
06. Porgy And Bess (20:18)
 
Лог создания рипа
Exact Audio Copy V1.0 beta 3 from 29. August 2011
EAC extraction logfile from 21. February 2014, 13:08
Michel Legrand / Anthology CD3
Used drive : PLEXTOR DVDR PX-860A Adapter: 0 ID: 0
Read mode : Secure
Utilize accurate stream : Yes
Defeat audio cache : Yes
Make use of C2 pointers : No
Read offset correction : 96
Overread into Lead-In and Lead-Out : No
Fill up missing offset samples with silence : Yes
Delete leading and trailing silent blocks : No
Null samples used in CRC calculations : Yes
Used interface : Native Win32 interface for Win NT & 2000
Gap handling : Appended to previous track
Used output format : User Defined Encoder
Selected bitrate : 1024 kBit/s
Quality : High
Add ID3 tag : No
Command line compressor : C:\Program Files\Exact Audio Copy\Flac\flac.exe
Additional command line options : -8 -V -T "ARTIST=%artist%" -T "TITLE=%title%" -T "ALBUM=%albumtitle%" -T "DATE=%year%" -T "TRACKNUMBER=%tracknr%" -T "TOTALTRACKS=%numtracks%" -T "GENRE=%genre%" -T "ALBUMARTIST=%albumartist%" -T "ALBUM ARTIST=%albumartist%" -T "COMMENT=EAC Secure Mode, Test & Copy, AccurateRip, FLAC -8" %source%
TOC of the extracted CD
Track | Start | Length | Start sector | End sector
---------------------------------------------------------
1 | 0:00.00 | 19:18.59 | 0 | 86908
2 | 19:18.59 | 20:11.15 | 86909 | 177748
3 | 39:29.74 | 1:25.24 | 177749 | 184147
4 | 40:55.23 | 2:39.12 | 184148 | 196084
5 | 43:34.35 | 1:15.16 | 196085 | 201725
6 | 44:49.51 | 20:18.09 | 201726 | 293084
Track 1
Filename O:\DL\Michel Legrand - Anthology CD3 (2013) [FLAC]\01 - Rhapsody In Blue.wav
Pre-gap length 0:00:02.00
Peak level 64.5 %
Extraction speed 5.8 X
Track quality 100.0 %
Test CRC 9BEE58A1
Copy CRC 9BEE58A1
Track not present in AccurateRip database
Copy OK
Track 2
Filename O:\DL\Michel Legrand - Anthology CD3 (2013) [FLAC]\02 - An American In Paris.wav
Pre-gap length 0:00:04.41
Peak level 85.6 %
Extraction speed 7.5 X
Track quality 100.0 %
Test CRC FDB541A0
Copy CRC FDB541A0
Track not present in AccurateRip database
Copy OK
Track 3
Filename O:\DL\Michel Legrand - Anthology CD3 (2013) [FLAC]\03 - Prelude Allegro Ben Ritmato E Deciso.wav
Pre-gap length 0:00:05.56
Peak level 56.4 %
Extraction speed 4.6 X
Track quality 99.8 %
Test CRC 96707AEE
Copy CRC 96707AEE
Track not present in AccurateRip database
Copy OK
Track 4
Filename O:\DL\Michel Legrand - Anthology CD3 (2013) [FLAC]\04 - Prelude Andante Con Moto E Poco Rubato.wav
Peak level 37.7 %
Extraction speed 7.0 X
Track quality 100.0 %
Test CRC 542B4D5D
Copy CRC 542B4D5D
Track not present in AccurateRip database
Copy OK
Track 5
Filename O:\DL\Michel Legrand - Anthology CD3 (2013) [FLAC]\05 - Prelude Allegro Ben Ritmato E Deciso.wav
Peak level 62.8 %
Extraction speed 5.8 X
Track quality 100.0 %
Test CRC B2EA8366
Copy CRC B2EA8366
Track not present in AccurateRip database
Copy OK
Track 6
Filename O:\DL\Michel Legrand - Anthology CD3 (2013) [FLAC]\06 - Porgy And Bess.wav
Pre-gap length 0:00:05.00
Peak level 97.2 %
Extraction speed 8.6 X
Track quality 99.9 %
Test CRC 9DFD2BD6
Copy CRC 9DFD2BD6
Track not present in AccurateRip database
Copy OK
None of the tracks are present in the AccurateRip database
No errors occurred
End of status report
---- CUETools DB Plugin V2.1.3
[CTDB TOCID: LGv89YJ0ayaqAhgoa6xDRcYtD7s-] found, Submit result: LGv89YJ0ayaqAhgoa6xDRcYtD7s- has been confirmed
[6762210a] (1/1) Accurately ripped
==== Log checksum 25573B1D4A64511F587944304440A2C7A2C11B01BD7CA271AC3BAB7977FA8874 ====
 
Содержание индексной карты (.CUE)
REM GENRE Jazz
REM DATE 2013
REM DISCID 4A0F4306
REM COMMENT "ExactAudioCopy v1.0b3"
PERFORMER "Michel Legrand"
TITLE "Anthology CD3"
FILE "01 - Rhapsody In Blue.wav" WAVE
TRACK 01 AUDIO
TITLE "Rhapsody In Blue"
PERFORMER "Michel Legrand"
INDEX 01 00:00:00
TRACK 02 AUDIO
TITLE "An American In Paris"
PERFORMER "Michel Legrand"
INDEX 00 19:14:28
FILE "02 - An American In Paris.wav" WAVE
INDEX 01 00:00:00
TRACK 03 AUDIO
TITLE "Prelude Allegro Ben Ritmato E Deciso"
PERFORMER "Michel Legrand"
INDEX 00 20:05:48
FILE "03 - Prelude Allegro Ben Ritmato E Deciso.wav" WAVE
INDEX 01 00:00:00
FILE "04 - Prelude Andante Con Moto E Poco Rubato.wav" WAVE
TRACK 04 AUDIO
TITLE "Prelude Andante Con Moto E Poco Rubato"
PERFORMER "Michel Legrand"
INDEX 01 00:00:00
FILE "05 - Prelude Allegro Ben Ritmato E Deciso.wav" WAVE
TRACK 05 AUDIO
TITLE "Prelude Allegro Ben Ritmato E Deciso"
PERFORMER "Michel Legrand"
INDEX 01 00:00:00
TRACK 06 AUDIO
TITLE "Porgy And Bess"
PERFORMER "Michel Legrand"
INDEX 00 01:10:16
FILE "06 - Porgy And Bess.wav" WAVE
INDEX 01 00:00:00
 
CD4 - Stan Getz, Communications '72 / Bud Shank Plays Michel Legrand {79:25}
01. Communications '72 (2:33)
02. Outhouse Blues (4:37)
03. Now You've Gone (4:21)
04. Back To Bach (3:34)
05. Nursery Rhymes For All God's Children (5:15)
06. Soul Dance (4:22)
07. Redemption (4:40)
08. Flight (3:20)
09. Moods Of A Wanderer (3:48)
10. Bonjour Tristesse (7:05)
11. The Windmills Of Your Mind (3:14)
12. Whatch What Happens (4:07)
13. Thème d'Elise (3:49)
14. One Day (5:00)
15. Chanson De Solange (2:56)
16. De Delphine A Lancien (3:20)
17. I Will Wait For You (3:31)
18. His Eyes, Her Eyes (4:26)
19. Once Upon In A Summertime (3:33)
20. Chanson Des Jumelles (1:54)
 
Лог создания рипа
Exact Audio Copy V1.0 beta 3 from 29. August 2011
EAC extraction logfile from 21. February 2014, 13:46
Michel Legrand / Anthology CD4
Used drive : PLEXTOR DVDR PX-860A Adapter: 0 ID: 0
Read mode : Secure
Utilize accurate stream : Yes
Defeat audio cache : Yes
Make use of C2 pointers : No
Read offset correction : 96
Overread into Lead-In and Lead-Out : No
Fill up missing offset samples with silence : Yes
Delete leading and trailing silent blocks : No
Null samples used in CRC calculations : Yes
Used interface : Native Win32 interface for Win NT & 2000
Gap handling : Appended to previous track
Used output format : User Defined Encoder
Selected bitrate : 1024 kBit/s
Quality : High
Add ID3 tag : No
Command line compressor : C:\Program Files\Exact Audio Copy\Flac\flac.exe
Additional command line options : -8 -V -T "ARTIST=%artist%" -T "TITLE=%title%" -T "ALBUM=%albumtitle%" -T "DATE=%year%" -T "TRACKNUMBER=%tracknr%" -T "TOTALTRACKS=%numtracks%" -T "GENRE=%genre%" -T "ALBUMARTIST=%albumartist%" -T "ALBUM ARTIST=%albumartist%" -T "COMMENT=EAC Secure Mode, Test & Copy, AccurateRip, FLAC -8" %source%
TOC of the extracted CD
Track | Start | Length | Start sector | End sector
---------------------------------------------------------
1 | 0:00.00 | 2:32.68 | 0 | 11467
2 | 2:32.68 | 4:36.53 | 11468 | 32220
3 | 7:09.46 | 4:20.52 | 32221 | 51772
4 | 11:30.23 | 3:33.53 | 51773 | 67800
5 | 15:04.01 | 5:14.68 | 67801 | 91418
6 | 20:18.69 | 4:21.64 | 91419 | 111057
7 | 24:40.58 | 4:40.03 | 111058 | 132060
8 | 29:20.61 | 3:20.09 | 132061 | 147069
9 | 32:40.70 | 3:48.03 | 147070 | 164172
10 | 36:28.73 | 7:04.43 | 164173 | 196015
11 | 43:33.41 | 3:14.35 | 196016 | 210600
12 | 46:48.01 | 4:06.54 | 210601 | 229104
13 | 50:54.55 | 3:48.71 | 229105 | 246275
14 | 54:43.51 | 4:59.49 | 246276 | 268749
15 | 59:43.25 | 2:56.20 | 268750 | 281969
16 | 62:39.45 | 3:20.07 | 281970 | 296976
17 | 65:59.52 | 3:30.48 | 296977 | 312774
18 | 69:30.25 | 4:25.72 | 312775 | 332721
19 | 73:56.22 | 3:32.70 | 332722 | 348691
20 | 77:29.17 | 1:53.72 | 348692 | 357238
Track 1
Filename O:\DL\Michel Legrand - Anthology CD4 (2013) [FLAC]\01 - Communications '72.wav
Pre-gap length 0:00:02.00
Peak level 76.7 %
Extraction speed 4.2 X
Track quality 100.0 %
Test CRC 928BC7AF
Copy CRC 928BC7AF
Track not present in AccurateRip database
Copy OK
Track 2
Filename O:\DL\Michel Legrand - Anthology CD4 (2013) [FLAC]\02 - Outhouse Blues.wav
Pre-gap length 0:00:01.10
Peak level 76.4 %
Extraction speed 5.0 X
Track quality 100.0 %
Test CRC 913F35EA
Copy CRC 913F35EA
Track not present in AccurateRip database
Copy OK
Track 3
Filename O:\DL\Michel Legrand - Anthology CD4 (2013) [FLAC]\03 - Now You've Gone.wav
Pre-gap length 0:00:02.24
Peak level 73.7 %
Extraction speed 5.4 X
Track quality 100.0 %
Test CRC A0DCE3D7
Copy CRC A0DCE3D7
Track not present in AccurateRip database
Copy OK
Track 4
Filename O:\DL\Michel Legrand - Anthology CD4 (2013) [FLAC]\04 - Back To Bach.wav
Pre-gap length 0:00:01.57
Peak level 74.8 %
Extraction speed 5.5 X
Track quality 100.0 %
Test CRC BF43D5D2
Copy CRC BF43D5D2
Track not present in AccurateRip database
Copy OK
Track 5
Filename O:\DL\Michel Legrand - Anthology CD4 (2013) [FLAC]\05 - Nursery Rhymes For All God's Children.wav
Pre-gap length 0:00:02.24
Peak level 66.8 %
Extraction speed 6.0 X
Track quality 100.0 %
Test CRC 499B08A8
Copy CRC 499B08A8
Track not present in AccurateRip database
Copy OK
Track 6
Filename O:\DL\Michel Legrand - Anthology CD4 (2013) [FLAC]\06 - Soul Dance.wav
Pre-gap length 0:00:02.05
Peak level 94.8 %
Extraction speed 6.2 X
Track quality 100.0 %
Test CRC E8B58419
Copy CRC E8B58419
Track not present in AccurateRip database
Copy OK
Track 7
Filename O:\DL\Michel Legrand - Anthology CD4 (2013) [FLAC]\07 - Redemption.wav
Pre-gap length 0:00:02.10
Peak level 77.6 %
Extraction speed 6.7 X
Track quality 100.0 %
Test CRC 950D71BA
Copy CRC 950D71BA
Track not present in AccurateRip database
Copy OK
Track 8
Filename O:\DL\Michel Legrand - Anthology CD4 (2013) [FLAC]\08 - Flight.wav
Pre-gap length 0:00:02.34
Peak level 97.7 %
Extraction speed 6.7 X
Track quality 100.0 %
Test CRC F87AEF11
Copy CRC F87AEF11
Track not present in AccurateRip database
Copy OK
Track 9
Filename O:\DL\Michel Legrand - Anthology CD4 (2013) [FLAC]\09 - Moods Of A Wanderer.wav
Pre-gap length 0:00:01.80
Peak level 78.2 %
Extraction speed 6.2 X
Track quality 99.9 %
Test CRC F0924B21
Copy CRC F0924B21
Track not present in AccurateRip database
Copy OK
Track 10
Filename O:\DL\Michel Legrand - Anthology CD4 (2013) [FLAC]\10 - Bonjour Tristesse.wav
Pre-gap length 0:00:01.93
Peak level 87.2 %
Extraction speed 7.8 X
Track quality 100.0 %
Test CRC F45B5F41
Copy CRC F45B5F41
Track not present in AccurateRip database
Copy OK
Track 11
Filename O:\DL\Michel Legrand - Anthology CD4 (2013) [FLAC]\11 - The Windmills Of Your Mind.wav
Pre-gap length 0:00:04.00
Peak level 97.8 %
Extraction speed 6.8 X
Track quality 100.0 %
Test CRC B7CF3821
Copy CRC B7CF3821
Track not present in AccurateRip database
Copy OK
Track 12
Filename O:\DL\Michel Legrand - Anthology CD4 (2013) [FLAC]\12 - Whatch What Happens.wav
Pre-gap length 0:00:02.04
Peak level 97.9 %
Extraction speed 7.7 X
Track quality 100.0 %
Test CRC 5D6D42C2
Copy CRC 5D6D42C2
Track not present in AccurateRip database
Copy OK
Track 13
Filename O:\DL\Michel Legrand - Anthology CD4 (2013) [FLAC]\13 - Theme d'Elise.wav
Pre-gap length 0:00:02.16
Peak level 97.9 %
Extraction speed 7.5 X
Track quality 100.0 %
Test CRC 7BEEDB40
Copy CRC 7BEEDB40
Track not present in AccurateRip database
Copy OK
Track 14
Filename O:\DL\Michel Legrand - Anthology CD4 (2013) [FLAC]\14 - One Day.wav
Pre-gap length 0:00:01.90
Peak level 97.8 %
Extraction speed 7.8 X
Track quality 100.0 %
Test CRC 0D4DFE6B
Copy CRC 0D4DFE6B
Track not present in AccurateRip database
Copy OK
Track 15
Filename O:\DL\Michel Legrand - Anthology CD4 (2013) [FLAC]\15 - Chanson De Solange.wav
Pre-gap length 0:00:02.02
Peak level 97.9 %
Extraction speed 6.4 X
Track quality 99.9 %
Test CRC 857AAFBF
Copy CRC 857AAFBF
Track not present in AccurateRip database
Copy OK
Track 16
Filename O:\DL\Michel Legrand - Anthology CD4 (2013) [FLAC]\16 - De Delphine A Lancien.wav
Pre-gap length 0:00:01.76
Peak level 98.1 %
Extraction speed 8.2 X
Track quality 100.0 %
Test CRC 6F20C7C1
Copy CRC 6F20C7C1
Track not present in AccurateRip database
Copy OK
Track 17
Filename O:\DL\Michel Legrand - Anthology CD4 (2013) [FLAC]\17 - I Will Wait For You.wav
Pre-gap length 0:00:01.89
Peak level 97.9 %
Extraction speed 8.2 X
Track quality 100.0 %
Test CRC 8F900AD7
Copy CRC 8F900AD7
Track not present in AccurateRip database
Copy OK
Track 18
Filename O:\DL\Michel Legrand - Anthology CD4 (2013) [FLAC]\18 - His Eyes, Her Eyes.wav
Pre-gap length 0:00:02.00
Peak level 98.4 %
Extraction speed 7.9 X
Track quality 99.9 %
Test CRC 4997D797
Copy CRC 4997D797
Track not present in AccurateRip database
Copy OK
Track 19
Filename O:\DL\Michel Legrand - Anthology CD4 (2013) [FLAC]\19 - Once Upon In A Summertime.wav
Pre-gap length 0:00:01.85
Peak level 97.9 %
Extraction speed 8.6 X
Track quality 100.0 %
Test CRC F8221A24
Copy CRC F8221A24
Track not present in AccurateRip database
Copy OK
Track 20
Filename O:\DL\Michel Legrand - Anthology CD4 (2013) [FLAC]\20 - Chanson Des Jumelles.wav
Pre-gap length 0:00:01.78
Peak level 97.8 %
Extraction speed 7.8 X
Track quality 100.0 %
Test CRC 666607E3
Copy CRC 666607E3
Track not present in AccurateRip database
Copy OK
None of the tracks are present in the AccurateRip database
No errors occurred
End of status report
---- CUETools DB Plugin V2.1.3
[CTDB TOCID: KJ0XcR.qAyOlowEVzSD1_YgZurU-] found, Submit result: KJ0XcR.qAyOlowEVzSD1_YgZurU- has been confirmed
[5d17bd52] (1/1) Accurately ripped
==== Log checksum 50325F55A64449A9458357F4C5DF9735C58091D6056FC8EA64DB82B82F1EA4D6 ====
 
Содержание индексной карты (.CUE)
REM GENRE Jazz
REM DATE 2013
REM DISCID 1A129B14
REM COMMENT "ExactAudioCopy v1.0b3"
PERFORMER "Michel Legrand"
TITLE "Anthology CD4"
FILE "01 - Communications '72.wav" WAVE
TRACK 01 AUDIO
TITLE "Communications '72"
PERFORMER "Michel Legrand"
INDEX 01 00:00:00
TRACK 02 AUDIO
TITLE "Outhouse Blues"
PERFORMER "Michel Legrand"
INDEX 00 02:31:60
FILE "02 - Outhouse Blues.wav" WAVE
INDEX 01 00:00:00
TRACK 03 AUDIO
TITLE "Now You've Gone"
PERFORMER "Michel Legrand"
INDEX 00 04:34:35
FILE "03 - Now You've Gone.wav" WAVE
INDEX 01 00:00:00
TRACK 04 AUDIO
TITLE "Back To Bach"
PERFORMER "Michel Legrand"
INDEX 00 04:19:09
FILE "04 - Back To Bach.wav" WAVE
INDEX 01 00:00:00
TRACK 05 AUDIO
TITLE "Nursery Rhymes For All God's Children"
PERFORMER "Michel Legrand"
INDEX 00 03:31:35
FILE "05 - Nursery Rhymes For All God's Children.wav" WAVE
INDEX 01 00:00:00
TRACK 06 AUDIO
TITLE "Soul Dance"
PERFORMER "Michel Legrand"
INDEX 00 05:12:64
FILE "06 - Soul Dance.wav" WAVE
INDEX 01 00:00:00
TRACK 07 AUDIO
TITLE "Redemption"
PERFORMER "Michel Legrand"
INDEX 00 04:19:56
FILE "07 - Redemption.wav" WAVE
INDEX 01 00:00:00
TRACK 08 AUDIO
TITLE "Flight"
PERFORMER "Michel Legrand"
INDEX 00 04:37:52
FILE "08 - Flight.wav" WAVE
INDEX 01 00:00:00
TRACK 09 AUDIO
TITLE "Moods Of A Wanderer"
PERFORMER "Michel Legrand"
INDEX 00 03:18:24
FILE "09 - Moods Of A Wanderer.wav" WAVE
INDEX 01 00:00:00
TRACK 10 AUDIO
TITLE "Bonjour Tristesse"
PERFORMER "Michel Legrand"
INDEX 00 03:46:08
FILE "10 - Bonjour Tristesse.wav" WAVE
INDEX 01 00:00:00
TRACK 11 AUDIO
TITLE "The Windmills Of Your Mind"
PERFORMER "Michel Legrand"
INDEX 00 07:00:43
FILE "11 - The Windmills Of Your Mind.wav" WAVE
INDEX 01 00:00:00
TRACK 12 AUDIO
TITLE "Whatch What Happens"
PERFORMER "Michel Legrand"
INDEX 00 03:12:32
FILE "12 - Whatch What Happens.wav" WAVE
INDEX 01 00:00:00
TRACK 13 AUDIO
TITLE "Thиme d'Elise"
PERFORMER "Michel Legrand"
INDEX 00 04:04:42
FILE "13 - Theme d'Elise.wav" WAVE
INDEX 01 00:00:00
TRACK 14 AUDIO
TITLE "One Day"
PERFORMER "Michel Legrand"
INDEX 00 03:47:03
FILE "14 - One Day.wav" WAVE
INDEX 01 00:00:00
TRACK 15 AUDIO
TITLE "Chanson De Solange"
PERFORMER "Michel Legrand"
INDEX 00 04:57:47
FILE "15 - Chanson De Solange.wav" WAVE
INDEX 01 00:00:00
TRACK 16 AUDIO
TITLE "De Delphine A Lancien"
PERFORMER "Michel Legrand"
INDEX 00 02:54:38
FILE "16 - De Delphine A Lancien.wav" WAVE
INDEX 01 00:00:00
TRACK 17 AUDIO
TITLE "I Will Wait For You"
PERFORMER "Michel Legrand"
INDEX 00 03:18:15
FILE "17 - I Will Wait For You.wav" WAVE
INDEX 01 00:00:00
TRACK 18 AUDIO
TITLE "His Eyes, Her Eyes"
PERFORMER "Michel Legrand"
INDEX 00 03:28:48
FILE "18 - His Eyes, Her Eyes.wav" WAVE
INDEX 01 00:00:00
TRACK 19 AUDIO
TITLE "Once Upon In A Summertime"
PERFORMER "Michel Legrand"
INDEX 00 04:24:08
FILE "19 - Once Upon In A Summertime.wav" WAVE
INDEX 01 00:00:00
TRACK 20 AUDIO
TITLE "Chanson Des Jumelles"
PERFORMER "Michel Legrand"
INDEX 00 03:31:11
FILE "20 - Chanson Des Jumelles.wav" WAVE
INDEX 01 00:00:00
 
CD5 - Arrangements et Chansons Originales / Arrangements and Original Songs {60:52}
01. Le Cinema (3:00)
02. L'Homme (2:50)
03. Un Jour Tu Verras (3:32)
04. La Légende Du Pays Aux Oiseaux (2:51)
05. La Vals Des Lilas (2:59)
06. S'il Te Faut (2:08)
07. Coin De Rue (3:25)
08. Elle Et Il (2:21)
09. Coucher Avec Elle (2:33)
10. Ca Va (Le Diable) (2:49)
11. On Est Tous Les Deux (2:44)
12. Le Tango DE Jumeaux (2:10)
13. Les Enfents Qui Pleurent (2:14)
14. Qu'avons-Nous Fait Bonnes Gens (1:50)
15. Allume Tes Lampions (2:32)
16. La Faim De Vivre (3:07)
17. Louise (3:01)
18. Quand Les Petits Seront Vendus (3:00)
19. La Complainte De La Tour Eiffel (3:00)
20. La Dolce Vita (2:50)
21. Les Croix (3:41)
22. Le Rouge Et Le Noir (2:15)
 
Лог создания рипа
Exact Audio Copy V1.0 beta 3 from 29. August 2011
EAC extraction logfile from 21. February 2014, 14:33
Michel Legrand / Anthology CD5
Used drive : PLEXTOR DVDR PX-860A Adapter: 0 ID: 0
Read mode : Secure
Utilize accurate stream : Yes
Defeat audio cache : Yes
Make use of C2 pointers : No
Read offset correction : 96
Overread into Lead-In and Lead-Out : No
Fill up missing offset samples with silence : Yes
Delete leading and trailing silent blocks : No
Null samples used in CRC calculations : Yes
Used interface : Native Win32 interface for Win NT & 2000
Gap handling : Appended to previous track
Used output format : User Defined Encoder
Selected bitrate : 1024 kBit/s
Quality : High
Add ID3 tag : No
Command line compressor : C:\Program Files\Exact Audio Copy\Flac\flac.exe
Additional command line options : -8 -V -T "ARTIST=%artist%" -T "TITLE=%title%" -T "ALBUM=%albumtitle%" -T "DATE=%year%" -T "TRACKNUMBER=%tracknr%" -T "TOTALTRACKS=%numtracks%" -T "GENRE=%genre%" -T "ALBUMARTIST=%albumartist%" -T "ALBUM ARTIST=%albumartist%" -T "COMMENT=EAC Secure Mode, Test & Copy, AccurateRip, FLAC -8" %source%
TOC of the extracted CD
Track | Start | Length | Start sector | End sector
---------------------------------------------------------
1 | 0:00.00 | 3:00.13 | 0 | 13512
2 | 3:00.13 | 2:49.51 | 13513 | 26238
3 | 5:49.64 | 3:31.53 | 26239 | 42116
4 | 9:21.42 | 2:50.49 | 42117 | 54915
5 | 12:12.16 | 2:59.34 | 54916 | 68374
6 | 15:11.50 | 2:07.58 | 68375 | 77957
Any questions - support@pro-jazz.com. Есть вопросы - support@pro-jazz.com
06:51
324
Нет комментариев. Ваш будет первым!