Вы используете незарегистрированную версию компонента "Вкладки"!

Поиск

(Crossover Jazz) [CD] Don Sebesky - Moving Lines - 1989, FLAC (tracks+.cue), lossless

(Crossover Jazz) [CD] Don Sebesky - Moving Lines - 1989, FLAC (tracks+.cue), lossless
Треклист:
Don Sebesky - Moving Lines
Жанр: Crossover Jazz
Носитель: CD
Страна-производитель диска (релиза): USA
Год издания: 1989
Издатель (лейбл): CBS
Номер по каталогу: AK 40155
Страна исполнителя (группы): USA
Аудиокодек: FLAC (*.flac)
Тип рипа: tracks+.cue
Битрейт аудио: lossless
Продолжительность: 41:46
Источник (релизер): Собственный диск
Наличие сканов в содержимом раздачи: да
Треклист:
01. Claire's Song - 4:27
02. Cherokee - 6:22
03. Moondreams - 5:16
04. I Go To Rio/Mardi Gras - 5:11
05. Malaguena - 13:40
06. Skyliner - 6:51
 
Лог создания рипа
Exact Audio Copy V1.1 from 23. June 2015
EAC extraction logfile from 30. March 2016, 17:22
Don Sebesky / Moving Lines
Used drive : TSSTcorpCDDVDW TS-U633J Adapter: 1 ID: 0
Read mode : Secure
Utilize accurate stream : Yes
Defeat audio cache : Yes
Make use of C2 pointers : No
Read offset correction : 6
Overread into Lead-In and Lead-Out : No
Fill up missing offset samples with silence : Yes
Delete leading and trailing silent blocks : No
Null samples used in CRC calculations : Yes
Used interface : Native Win32 interface for Win NT & 2000
Gap handling : Appended to previous track
Used output format : User Defined Encoder
Selected bitrate : 1024 kBit/s
Quality : High
Add ID3 tag : No
Command line compressor : C:\Program Files (x86)\Exact Audio Copy\Flac\flac.exe
Additional command line options : -8 -e -V -T "ARTIST=%artist%" -T "TITLE=%title%" -T "ALBUM=%albumtitle%" -T "DATE=%year%" -T "TRACKNUMBER=%tracknr%" -T "GENRE=%genre%" -T "PERFORMER=%albuminterpret%" -T "COMPOSER=%composer%" %haslyrics%--tag-from-file=LYRICS="%lyricsfile%"%haslyrics% -T "ALBUMARTIST=%albumartist%" -T "DISCNUMBER=%cdnumber%" -T "TOTALDISCS=%totalcds%" -T "TOTALTRACKS=%numtracks%" -T "COMMENT=%comment%" %source% -o %dest%
TOC of the extracted CD
Track | Start | Length | Start sector | End sector
---------------------------------------------------------
1 | 0:00.00 | 4:27.12 | 0 | 20036
2 | 4:27.12 | 6:22.00 | 20037 | 48686
3 | 10:49.12 | 5:16.00 | 48687 | 72386
4 | 16:05.12 | 5:11.00 | 72387 | 95711
5 | 21:16.12 | 13:40.00 | 95712 | 157211
6 | 34:56.12 | 6:50.58 | 157212 | 188019
Track 1
Filename C:\EAC Rips\Don Sebesky - Moving Lines (1984) {1989, CBS, AK40155}\01 - Claire's Song.wav
Pre-gap length 0:00:02.00
Peak level 83.1 %
Extraction speed 2.6 X
Track quality 100.0 %
Test CRC 67CEBFDD
Copy CRC 67CEBFDD
Track not present in AccurateRip database
Copy OK
Track 2
Filename C:\EAC Rips\Don Sebesky - Moving Lines (1984) {1989, CBS, AK40155}\02 - Cherokee.wav
Pre-gap length 0:00:00.49
Peak level 72.7 %
Extraction speed 3.1 X
Track quality 100.0 %
Test CRC 32638BA8
Copy CRC 32638BA8
Track not present in AccurateRip database
Copy OK
Track 3
Filename C:\EAC Rips\Don Sebesky - Moving Lines (1984) {1989, CBS, AK40155}\03 - Moondreams.wav
Pre-gap length 0:00:01.49
Peak level 72.8 %
Extraction speed 3.4 X
Track quality 100.0 %
Test CRC EB569C8C
Copy CRC EB569C8C
Track not present in AccurateRip database
Copy OK
Track 4
Filename C:\EAC Rips\Don Sebesky - Moving Lines (1984) {1989, CBS, AK40155}\04 - I Go To Rio,Mardi Gras.wav
Pre-gap length 0:00:01.49
Peak level 72.5 %
Extraction speed 3.6 X
Track quality 100.0 %
Test CRC 4DF0B511
Copy CRC 4DF0B511
Track not present in AccurateRip database
Copy OK
Track 5
Filename C:\EAC Rips\Don Sebesky - Moving Lines (1984) {1989, CBS, AK40155}\05 - Malaguena.wav
Pre-gap length 0:00:01.16
Peak level 83.4 %
Extraction speed 4.1 X
Track quality 99.9 %
Test CRC 0786693E
Copy CRC 0786693E
Track not present in AccurateRip database
Copy OK
Track 6
Filename C:\EAC Rips\Don Sebesky - Moving Lines (1984) {1989, CBS, AK40155}\06 - Skyliner.wav
Pre-gap length 0:00:01.02
Peak level 87.0 %
Extraction speed 4.6 X
Track quality 100.0 %
Test CRC EEF7FBF7
Copy CRC EEF7FBF7
Track not present in AccurateRip database
Copy OK
None of the tracks are present in the AccurateRip database
No errors occurred
End of status report
---- CUETools DB Plugin V2.1.6
[CTDB TOCID: zmekcDuTk5n91Z6ZCU0H.Ay7pnI-] found
Submit result: zmekcDuTk5n91Z6ZCU0H.Ay7pnI- has been uploaded
Track | CTDB Status
1 | (0/1) No match
2 | (0/1) No match
3 | (0/1) No match
4 | (0/1) No match
5 | (0/1) No match
6 | (0/1) No match
==== Log checksum 1B9A3C825F37086458D539125370D6D7B482634E61857189FC131867E2C3E050 ====
 
Содержание индексной карты (.CUE)
REM GENRE Jazz
REM DATE 1984
REM DISCID 5A09CA06
REM COMMENT "ExactAudioCopy v1.1"
PERFORMER "Don Sebesky"
TITLE "Moving Lines"
FILE "01 - Claire's Song.wav" WAVE
TRACK 01 AUDIO
TITLE "Claire's Song"
PERFORMER "Don Sebesky"
INDEX 01 00:00:00
TRACK 02 AUDIO
TITLE "Cherokee"
PERFORMER "Don Sebesky"
INDEX 00 04:26:50
FILE "02 - Cherokee.wav" WAVE
INDEX 01 00:00:00
TRACK 03 AUDIO
TITLE "Moondreams"
PERFORMER "Don Sebesky"
INDEX 00 06:20:38
FILE "03 - Moondreams.wav" WAVE
INDEX 01 00:00:00
TRACK 04 AUDIO
TITLE "I Go To Rio/Mardi Gras"
PERFORMER "Don Sebesky"
INDEX 00 05:14:38
FILE "04 - I Go To Rio,Mardi Gras.wav" WAVE
INDEX 01 00:00:00
TRACK 05 AUDIO
TITLE "Malaguena"
PERFORMER "Don Sebesky"
INDEX 00 05:09:63
FILE "05 - Malaguena.wav" WAVE
INDEX 01 00:00:00
TRACK 06 AUDIO
TITLE "Skyliner"
PERFORMER "Don Sebesky"
INDEX 00 13:38:73
FILE "06 - Skyliner.wav" WAVE
INDEX 01 00:00:00
 
Скриншот спектра частот
Any questions -> support@pro-jazz.com. По всем вопросам пишите -> support@pro-jazz.com
05:10
306
Нет комментариев. Ваш будет первым!