Поиск

(Cool, West Coast Jazz) The Buddy Collette-Chico Hamilton Sextet - Tanganyika - 1993, FLAC (tracks+.cue), lossless

Треклист:
The Buddy Collette-Chico Hamilton Sextet / Tanganyika
Жанр: Cool, West Coast Jazz
Страна-производитель диска: USA
Год издания диска: 1993
Издатель (лейбл): V.S.O.P. RECORDS
Номер по каталогу: V.S.O.P. #20 CD Tampa #34
Страна: USA Los Angeles, CA
Аудиокодек: FLAC (*.flac)
Тип рипа: tracks+.cue
Битрейт аудио: lossless
Продолжительность: 00:41:46
Источник (релизер): Musicgate
Наличие сканов в содержимом раздачи: да
Треклист:
01. Green Dream [04:27]
02. It's You [02:25]
03. A Walk On The Veldt [03:21]
04. How Long Has This Been Going On [03:13]
05. The Blindfold Test [06:47]
06. Jungke Pogo Stick [02:42]
07. Tanganyika [04:55]
08. Wagnervous [04:40]
09. And So Is Love [02:41]
10. Coming Back For More [06:30]
Recorded October 11, 1956, Capitol Records Studios, Hollywood, CA Engineer: John Kraus
Альбом выложен с разрешения Musicgate
 
Лог создания рипа
Exact Audio Copy V1.0 beta 2 from 29. April 2011
EAC extraction logfile from 16. November 2011, 13:36
Tanganyika / The Buddy Collette-Chico Hamilton Sextet
Used drive : HL-DT-STDVD-RAM GH22NP20 Adapter: 0 ID: 0
Read mode : Secure
Utilize accurate stream : Yes
Defeat audio cache : Yes
Make use of C2 pointers : No
Read offset correction : 102
Overread into Lead-In and Lead-Out : No
Fill up missing offset samples with silence : Yes
Delete leading and trailing silent blocks : No
Null samples used in CRC calculations : Yes
Used interface : Native Win32 interface for Win NT & 2000
Gap handling : Appended to previous track
Used output format : User Defined Encoder
Selected bitrate : 1024 kBit/s
Quality : High
Add ID3 tag : No
Command line compressor : C:\Program Files\Exact Audio Copy\Flac\flac.exe
Additional command line options : -8 -V -T "ARTIST=%artist%" -T "TITLE=%title%" -T "ALBUM=%albumtitle%" -T "DATE=%year%" -T "TRACKNUMBER=%tracknr%" -T "GENRE=%genre%" -T "PERFORMER=%albuminterpret%" -T "COMMENT=EAC V1.0 beta 2, Secure Mode, Test & Copy, Acc
TOC of the extracted CD
Track | Start | Length | Start sector | End sector
---------------------------------------------------------
1 | 0:00.00 | 4:29.17 | 0 | 20191
2 | 4:29.17 | 2:27.10 | 20192 | 31226
3 | 6:56.27 | 3:23.65 | 31227 | 46516
4 | 10:20.17 | 3:15.45 | 46517 | 61186
5 | 13:35.62 | 6:49.31 | 61187 | 91892
6 | 20:25.18 | 2:44.18 | 91893 | 104210
7 | 23:09.36 | 4:57.63 | 104211 | 126548
8 | 28:07.24 | 4:42.38 | 126549 | 147736
9 | 32:49.62 | 2:43.39 | 147737 | 160000
10 | 35:33.26 | 6:30.45 | 160001 | 189295
Track 1
Filename D:\music\Musicgate's rips\The Buddy Collette-Chico Hamilton Sextet - Tanganyika - 1956\01 - Green Dream.wav
Pre-gap length 0:00:02.00
Peak level 72.5 %
Extraction speed 1.4 X
Track quality 99.9 %
Test CRC 83FD0FF6
Copy CRC 83FD0FF6
Track not present in AccurateRip database
Copy OK
Track 2
Filename D:\music\Musicgate's rips\The Buddy Collette-Chico Hamilton Sextet - Tanganyika - 1956\02 - It's You.wav
Pre-gap length 0:00:01.80
Peak level 75.9 %
Extraction speed 1.5 X
Track quality 100.0 %
Test CRC 47FAA517
Copy CRC 47FAA517
Track not present in AccurateRip database
Copy OK
Track 3
Filename D:\music\Musicgate's rips\The Buddy Collette-Chico Hamilton Sextet - Tanganyika - 1956\03 - A Walk On The Veldt.wav
Pre-gap length 0:00:01.61
Peak level 100.0 %
Extraction speed 1.5 X
Track quality 99.9 %
Test CRC 6C886AAA
Copy CRC 6C886AAA
Track not present in AccurateRip database
Copy OK
Track 4
Filename D:\music\Musicgate's rips\The Buddy Collette-Chico Hamilton Sextet - Tanganyika - 1956\04 - How Long Has This Been Going On.wav
Pre-gap length 0:00:02.12
Peak level 82.5 %
Extraction speed 1.9 X
Track quality 100.0 %
Test CRC 5419D9A4
Copy CRC 5419D9A4
Track not present in AccurateRip database
Copy OK
Track 5
Filename D:\music\Musicgate's rips\The Buddy Collette-Chico Hamilton Sextet - Tanganyika - 1956\05 - The Blindfold Test.wav
Pre-gap length 0:00:02.40
Peak level 80.7 %
Extraction speed 2.3 X
Track quality 100.0 %
Test CRC E7025846
Copy CRC E7025846
Track not present in AccurateRip database
Copy OK
Track 6
Filename D:\music\Musicgate's rips\The Buddy Collette-Chico Hamilton Sextet - Tanganyika - 1956\06 - Jungke Pogo Stick.wav
Pre-gap length 0:00:02.26
Peak level 61.9 %
Extraction speed 2.2 X
Track quality 100.0 %
Test CRC 9495DD41
Copy CRC 9495DD41
Track not present in AccurateRip database
Copy OK
Track 7
Filename D:\music\Musicgate's rips\The Buddy Collette-Chico Hamilton Sextet - Tanganyika - 1956\07 - Tanganyika.wav
Pre-gap length 0:00:02.13
Peak level 43.0 %
Extraction speed 2.5 X
Track quality 100.0 %
Test CRC 3F9A68B6
Copy CRC 3F9A68B6
Track not present in AccurateRip database
Copy OK
Track 8
Filename D:\music\Musicgate's rips\The Buddy Collette-Chico Hamilton Sextet - Tanganyika - 1956\08 - Wagnervous.wav
Pre-gap length 0:00:01.98
Peak level 91.0 %
Extraction speed 2.3 X
Track quality 99.9 %
Test CRC 43CFCBE9
Copy CRC 43CFCBE9
Track not present in AccurateRip database
Copy OK
Track 9
Filename D:\music\Musicgate's rips\The Buddy Collette-Chico Hamilton Sextet - Tanganyika - 1956\09 - And So Is Love.wav
Pre-gap length 0:00:01.60
Peak level 85.0 %
Extraction speed 2.5 X
Track quality 100.0 %
Test CRC 5BFEA057
Copy CRC 5BFEA057
Track not present in AccurateRip database
Copy OK
Track 10
Filename D:\music\Musicgate's rips\The Buddy Collette-Chico Hamilton Sextet - Tanganyika - 1956\10 - Coming Back For More.wav
Pre-gap length 0:00:02.01
Peak level 75.5 %
Extraction speed 2.9 X
Track quality 100.0 %
Test CRC E99C4EFB
Copy CRC E99C4EFB
Track not present in AccurateRip database
Copy OK
None of the tracks are present in the AccurateRip database
No errors occurred
End of status report
==== Log checksum CF7B16DFA6C8360F1AE98D9AEAD9435AE51952ED16277F726AA723F31B602A42 ====
 
Содержание индексной карты (.CUE)
REM GENRE jazz
REM DATE 1956
REM DISCID 8209DB0A
REM COMMENT "ExactAudioCopy v1.0b2"
PERFORMER "Tanganyika"
TITLE "The Buddy Collette-Chico Hamilton Sextet"
FILE "01 - Green Dream.wav" WAVE
TRACK 01 AUDIO
TITLE "Green Dream"
PERFORMER "Tanganyika"
INDEX 01 00:00:00
TRACK 02 AUDIO
TITLE "It's You"
PERFORMER "Tanganyika"
INDEX 00 04:27:32
FILE "02 - It's You.wav" WAVE
INDEX 01 00:00:00
TRACK 03 AUDIO
TITLE "A Walk On The Veldt"
PERFORMER "Tanganyika"
INDEX 00 02:25:39
FILE "03 - A Walk On The Veldt.wav" WAVE
INDEX 01 00:00:00
TRACK 04 AUDIO
TITLE "How Long Has This Been Going On"
PERFORMER "Tanganyika"
INDEX 00 03:21:56
FILE "04 - How Long Has This Been Going On.wav" WAVE
INDEX 01 00:00:00
TRACK 05 AUDIO
TITLE "The Blindfold Test"
PERFORMER "Tanganyika"
INDEX 00 03:13:15
FILE "05 - The Blindfold Test.wav" WAVE
INDEX 01 00:00:00
TRACK 06 AUDIO
TITLE "Jungke Pogo Stick"
PERFORMER "Tanganyika"
INDEX 00 06:47:11
FILE "06 - Jungke Pogo Stick.wav" WAVE
INDEX 01 00:00:00
TRACK 07 AUDIO
TITLE "Tanganyika"
PERFORMER "Tanganyika"
INDEX 00 02:42:08
FILE "07 - Tanganyika.wav" WAVE
INDEX 01 00:00:00
TRACK 08 AUDIO
TITLE "Wagnervous"
PERFORMER "Tanganyika"
INDEX 00 04:55:64
FILE "08 - Wagnervous.wav" WAVE
INDEX 01 00:00:00
TRACK 09 AUDIO
TITLE "And So Is Love"
PERFORMER "Tanganyika"
INDEX 00 04:40:68
FILE "09 - And So Is Love.wav" WAVE
INDEX 01 00:00:00
TRACK 10 AUDIO
TITLE "Coming Back For More"
PERFORMER "Tanganyika"
INDEX 00 02:41:38
FILE "10 - Coming Back For More.wav" WAVE
INDEX 01 00:00:00
 
Лог проверки качества


 
Состав
Buddy Collette - reeds
John Anderson - trumpet
Gerald Wiggins - piano
Jim Hall - guitar
Curtis Counce - bass
Chico Hamilton - drums
21:54
688
Нет комментариев. Ваш будет первым!