Поиск

(Cool, West Coast Jazz) [CD] Chet Baker & Philip Catherine - There'll Never Be Another You (1985) - 2015 {CDSOL-6380}, FLAC (tracks+.cue), lossless

(Cool, West Coast Jazz) [CD] Chet Baker & Philip Catherine - There'll Never Be Another You (1985) - 2015 {CDSOL-6380}, FLAC (tracks+.cue), lossless
Треклист:
Chet Baker & Philip Catherine - There'll Never Be Another You (1985) Жанр: Cool, West Coast Jazz
Носитель: CD
Страна-производитель диска: Japan
Год издания: 2015
Издатель (лейбл): Timeless Records/Solid Records Japan/Ultra-Vibe
Номер по каталогу: CDSOL-6380
Аудиокодек: FLAC (*.flac)
Тип рипа: tracks+.cue
Битрейт аудио: lossless
Продолжительность: 58:54
Rip by ruskaval
Наличие сканов в содержимом раздачи: да
Треклист:
01. Beatrice (14:58)
02. There'll Never Be Another You (10:19)
03. Leaving (17:26)
04. My Foolish Heart (16:10)
Chet Baker - trumpet, vocals, piano
Philip Catherine - guitar
Rec.: Zagreb,Yugoslavia, October 25, 1985.
 
 
Лог создания рипа
Exact Audio Copy V1.1 from 23. June 2015
EAC extraction logfile from 27. July 2016, 22:08
Chet Baker & Philip Catherine / There'll Never Be Another You
Used drive  : HL-DT-STDVDRAM GP50NW41   Adapter: 1  ID: 0
Read mode               : Secure
Utilize accurate stream : Yes
Defeat audio cache      : Yes
Make use of C2 pointers : No
Read offset correction                      : 6
Overread into Lead-In and Lead-Out          : No
Fill up missing offset samples with silence : Yes
Delete leading and trailing silent blocks   : No
Null samples used in CRC calculations       : Yes
Used interface                              : Native Win32 interface for Win NT & 2000
Gap handling                                : Appended to previous track
Used output format              : User Defined Encoder
Selected bitrate                : 1024 kBit/s
Quality                         : High
Add ID3 tag                     : No
Command line compressor         : C:\Program Files (x86)\FLAC Frontend\tools\flac.exe
Additional command line options : -8 -V -T "ARTIST=%artist%" -T "TITLE=%title%" -T "ALBUM=%albumtitle%" -T "DATE=%year%" -T "TRACKNUMBER=%tracknr%" -T "TOTALTRACKS=%numtracks%" -T "GENRE=%genre%" -T "ALBUMARTIST=%albumartist%" -T "ALBUM ARTIST=%albumartist%" -T "COMMENT=EAC Secure Mode, Test & Copy, AccurateRip, FLAC -8" %source%
TOC of the extracted CD
     Track |   Start  |  Length  | Start sector | End sector
    ---------------------------------------------------------
        1  |  0:00.00 | 14:58.14 |         0    |    67363
        2  | 14:58.14 | 10:19.28 |     67364    |   113816
        3  | 25:17.42 | 17:26.35 |    113817    |   192301
        4  | 42:44.02 | 16:10.02 |    192302    |   265053
Track  1
     Filename D:\_EAC\Chet Baker & Philip Catherine - There'll Never Be Another You (1985) [FLAC] {CDSOL-6380}\01 - Beatrice.wav
     Pre-gap length  0:00:02.00
     Peak level 97.3 %
     Extraction speed 3.3 X
     Track quality 100.0 %
     Test CRC 0436BDC7
     Copy CRC 0436BDC7
     Accurately ripped (confidence 1)  [5F510615]  (AR v2)
     Copy OK
Track  2
     Filename D:\_EAC\Chet Baker & Philip Catherine - There'll Never Be Another You (1985) [FLAC] {CDSOL-6380}\02 - There'll Never Be Another You.wav
     Peak level 97.3 %
     Extraction speed 4.1 X
     Track quality 100.0 %
     Test CRC CF504D4E
     Copy CRC CF504D4E
     Accurately ripped (confidence 1)  [687EA583]  (AR v2)
     Copy OK
Track  3
     Filename D:\_EAC\Chet Baker & Philip Catherine - There'll Never Be Another You (1985) [FLAC] {CDSOL-6380}\03 - Leaving.wav
     Peak level 97.3 %
     Extraction speed 4.6 X
     Track quality 99.9 %
     Test CRC 1BB89845
     Copy CRC 1BB89845
     Accurately ripped (confidence 1)  [4EA27EB7]  (AR v2)
     Copy OK
Track  4
     Filename D:\_EAC\Chet Baker & Philip Catherine - There'll Never Be Another You (1985) [FLAC] {CDSOL-6380}\04 - My Foolish Heart.wav
     Peak level 97.3 %
     Extraction speed 5.6 X
     Track quality 100.0 %
     Test CRC CE12271C
     Copy CRC CE12271C
     Accurately ripped (confidence 1)  [E12AB1ED]  (AR v2)
     Copy OK
All tracks accurately ripped
No errors occurred
End of status report
==== Log checksum 28F87DF7D89B849481A3EA2199694ADF7A92279B8A20C4B7BA479A98F650C5D8 ====
 
 
Содержание индексной карты (.CUE)
REM GENRE Jazz
REM DATE 1985
REM DISCID 2E0DCE04
REM COMMENT "ExactAudioCopy v1.1"
PERFORMER "Chet Baker & Philip Catherine"
TITLE "There'll Never Be Another You"
FILE "01 - Beatrice.wav" WAVE
  TRACK 01 AUDIO
    TITLE "Beatrice"
    PERFORMER "Chet Baker & Philip Catherine"
    FLAGS DCP
    INDEX 01 00:00:00
FILE "02 - There'll Never Be Another You.wav" WAVE
  TRACK 02 AUDIO
    TITLE "There'll Never Be Another You"
    PERFORMER "Chet Baker & Philip Catherine"
    FLAGS DCP
    INDEX 01 00:00:00
FILE "03 - Leaving.wav" WAVE
  TRACK 03 AUDIO
    TITLE "Leaving"
    PERFORMER "Chet Baker & Philip Catherine"
    FLAGS DCP
    INDEX 01 00:00:00
FILE "04 - My Foolish Heart.wav" WAVE
  TRACK 04 AUDIO
    TITLE "My Foolish Heart"
    PERFORMER "Chet Baker & Philip Catherine"
    FLAGS DCP
    INDEX 01 00:00:00
По всем вопросам пишите личное сообщение пользователю M0p94ok.
17:01
284
Нет комментариев. Ваш будет первым!