Вы используете незарегистрированную версию компонента "Вкладки"!

Поиск

(Cool / Post Bop) Bill Evans, Warne Marsh, Lee Konitz, Jimmy Garrison, Paul Motian - Live At The Half Note - 1959, 1976 (2008),[2CD] FLAC (tracks+.cue), lossless

Треклист:
Bill Evans, Warne Marsh, Lee Konitz, / Live At The Half Note
Жанр: Cool / Post Bop
Страна-производитель диска: EU
Год издания диска: 1959, 1976 (2008)
Издатель (лейбл): Jazz Lips Music
Номер по каталогу: JL 760
Страна: U.S.A.
Аудиокодек: FLAC (*.flac)
Тип рипа: tracks+.cue
Битрейт аудио: lossless
Продолжительность: 60:11/60:08
Источник (релизер): ruskaval
Наличие сканов в содержимом раздачи: да
Треклист:
CD1
01 - Palo Alto
02 - How About You?
03 - My Melancholy Baby
04 - Scrapple from the Apple
05 - You Stepped out of a Dream
06 - 317 East 32nd Street
07 - April
08 - It's You or No One
09 - Just Friends
CD 2. Bonus
01 - Baby, Baby All the Time
02 - Lennie-Bird
03 - Subconscious-Lee
04 - Background Music
05 - It's You or No One
06 - Body and Soul
07 - All the Things You Are
08 - You Go to My Head
09 - Invention in a Minor
10 - Easy Livin'
11 - Star Eyes
 
Лог создания рипа
EAC log CD1
Exact Audio Copy V0.99 prebeta 4 from 23. January 2008
EAC extraction logfile from 15. February 2009, 11:52
Bill Evans, Warne Marsh, Lee Konitz, Jimmy Garrison, Paul Motian / Live At The Half Note {CD 1}
Used drive : TSSTcorpCDDVDW SH-S202J Adapter: 0 ID: 1
Read mode : Secure
Utilize accurate stream : Yes
Defeat audio cache : Yes
Make use of C2 pointers : No
Read offset correction : 6
Overread into Lead-In and Lead-Out : No
Fill up missing offset samples with silence : Yes
Delete leading and trailing silent blocks : No
Null samples used in CRC calculations : Yes
Used interface : Native Win32 interface for Win NT & 2000
Gap handling : Appended to previous track
Used output format : User Defined Encoder
Selected bitrate : 128 kBit/s
Quality : High
Add ID3 tag : No
Command line compressor : C:\Program Files\FLAC\flac.exe
Additional command line options : -8 -V -T "ARTIST=%a" -T "TITLE=%t" -T "ALBUM=%g" -T "DATE=%y" -T "TRACKNUMBER=%n" -T "TOTALTRACKS=%x" -T "GENRE=%m" -T "ALBUMARTIST=%v" -T "ALBUM ARTIST=%v" -T "COMMENT=EAC V0.99pb4, Secure Mode, Test & Copy, FLAC -8" %s
TOC of the extracted CD
Track | Start | Length | Start sector | End sector
---------------------------------------------------------
1 | 0:00.00 | 9:16.06 | 0 | 41705
2 | 9:16.06 | 9:17.54 | 41706 | 83534
3 | 18:33.60 | 6:56.64 | 83535 | 114798
4 | 25:30.49 | 7:55.49 | 114799 | 150472
5 | 33:26.23 | 7:41.44 | 150473 | 185091
6 | 41:07.67 | 7:44.19 | 185092 | 219910
7 | 48:52.11 | 8:46.41 | 219911 | 259401
8 | 57:38.52 | 8:11.64 | 259402 | 296290
9 | 65:50.41 | 5:40.54 | 296291 | 321844
Track 1
Filename H:\EACTemp\Bill Evans, Warne Marsh, Lee Konitz, Jimmy Garrison, Paul Motian - Live At The Half Note (2008) [FLAC] {2 CD}\CD 1\01 - Palo Alto.wav
Pre-gap length 0:00:02.00
Peak level 94.0 %
Track quality 100.0 %
Test CRC 1F52AF80
Copy CRC 1F52AF80
Track not present in AccurateRip database
Copy OK
Track 2
Filename H:\EACTemp\Bill Evans, Warne Marsh, Lee Konitz, Jimmy Garrison, Paul Motian - Live At The Half Note (2008) [FLAC] {2 CD}\CD 1\02 - How About You.wav
Peak level 93.8 %
Track quality 100.0 %
Test CRC 8ABEF224
Copy CRC 8ABEF224
Track not present in AccurateRip database
Copy OK
Track 3
Filename H:\EACTemp\Bill Evans, Warne Marsh, Lee Konitz, Jimmy Garrison, Paul Motian - Live At The Half Note (2008) [FLAC] {2 CD}\CD 1\03 - My Melancholy Baby.wav
Peak level 93.5 %
Track quality 100.0 %
Test CRC F003195D
Copy CRC F003195D
Track not present in AccurateRip database
Copy OK
Track 4
Filename H:\EACTemp\Bill Evans, Warne Marsh, Lee Konitz, Jimmy Garrison, Paul Motian - Live At The Half Note (2008) [FLAC] {2 CD}\CD 1\04 - Scrapple From The Apple.wav
Peak level 90.1 %
Track quality 100.0 %
Test CRC 851328D9
Copy CRC 851328D9
Track not present in AccurateRip database
Copy OK
Track 5
Filename H:\EACTemp\Bill Evans, Warne Marsh, Lee Konitz, Jimmy Garrison, Paul Motian - Live At The Half Note (2008) [FLAC] {2 CD}\CD 1\05 - You Stepped Out Of A Dream.wav
Peak level 83.7 %
Track quality 100.0 %
Test CRC E025541C
Copy CRC E025541C
Track not present in AccurateRip database
Copy OK
Track 6
Filename H:\EACTemp\Bill Evans, Warne Marsh, Lee Konitz, Jimmy Garrison, Paul Motian - Live At The Half Note (2008) [FLAC] {2 CD}\CD 1\06 - 317 East 32nd Street.wav
Peak level 88.5 %
Track quality 100.0 %
Test CRC E72B55C1
Copy CRC E72B55C1
Track not present in AccurateRip database
Copy OK
Track 7
Filename H:\EACTemp\Bill Evans, Warne Marsh, Lee Konitz, Jimmy Garrison, Paul Motian - Live At The Half Note (2008) [FLAC] {2 CD}\CD 1\07 - April.wav
Peak level 91.1 %
Track quality 100.0 %
Test CRC 720ED576
Copy CRC 720ED576
Track not present in AccurateRip database
Copy OK
Track 8
Filename H:\EACTemp\Bill Evans, Warne Marsh, Lee Konitz, Jimmy Garrison, Paul Motian - Live At The Half Note (2008) [FLAC] {2 CD}\CD 1\08 - It's You Or No One.wav
Peak level 84.2 %
Track quality 100.0 %
Test CRC A75ED08C
Copy CRC A75ED08C
Track not present in AccurateRip database
Copy OK
Track 9
Filename H:\EACTemp\Bill Evans, Warne Marsh, Lee Konitz, Jimmy Garrison, Paul Motian - Live At The Half Note (2008) [FLAC] {2 CD}\CD 1\09 - Just Friends.wav
Peak level 87.9 %
Track quality 99.9 %
Test CRC 95B46AFE
Copy CRC 95B46AFE
Track not present in AccurateRip database
Copy OK
None of the tracks are present in the AccurateRip database
No errors occurred
End of status report
====================================================================================
EAC log CD2
Exact Audio Copy V0.99 prebeta 4 from 23. January 2008
EAC extraction logfile from 15. February 2009, 12:36
Bill Evans, Warne Marsh, Lee Konitz, Jimmy Garrison, Paul Motian / Live At The Half Note {CD 2} (Bonus)
Used drive : TSSTcorpCDDVDW SH-S202J Adapter: 0 ID: 1
Read mode : Secure
Utilize accurate stream : Yes
Defeat audio cache : Yes
Make use of C2 pointers : No
Read offset correction : 6
Overread into Lead-In and Lead-Out : No
Fill up missing offset samples with silence : Yes
Delete leading and trailing silent blocks : No
Null samples used in CRC calculations : Yes
Used interface : Native Win32 interface for Win NT & 2000
Gap handling : Appended to previous track
Used output format : User Defined Encoder
Selected bitrate : 128 kBit/s
Quality : High
Add ID3 tag : No
Command line compressor : C:\Program Files\FLAC\flac.exe
Additional command line options : -8 -V -T "ARTIST=%a" -T "TITLE=%t" -T "ALBUM=%g" -T "DATE=%y" -T "TRACKNUMBER=%n" -T "TOTALTRACKS=%x" -T "GENRE=%m" -T "ALBUMARTIST=%v" -T "ALBUM ARTIST=%v" -T "COMMENT=EAC V0.99pb4, Secure Mode, Test & Copy, FLAC -8" %s
TOC of the extracted CD
Track | Start | Length | Start sector | End sector
---------------------------------------------------------
1 | 0:00.00 | 8:33.52 | 0 | 38526
2 | 8:33.52 | 8:41.42 | 38527 | 77643
3 | 17:15.19 | 7:41.58 | 77644 | 112276
4 | 24:57.02 | 6:16.48 | 112277 | 140524
5 | 31:13.50 | 7:28.03 | 140525 | 174127
6 | 38:41.53 | 4:50.11 | 174128 | 195888
7 | 43:31.64 | 8:44.37 | 195889 | 235225
8 | 52:16.26 | 6:36.35 | 235226 | 264960
9 | 58:52.61 | 1:14.63 | 264961 | 270573
10 | 60:07.49 | 4:23.68 | 270574 | 290366
11 | 64:31.42 | 3:54.51 | 290367 | 307967
Track 1
Filename H:\EACTemp\Bill Evans, Warne Marsh, Lee Konitz, Jimmy Garrison, Paul Motian - Live At The Half Note (2008) [FLAC] {2 CD}\CD 2\01 - Baby, Baby All the Time.wav
Pre-gap length 0:00:02.00
Peak level 93.8 %
Track quality 99.9 %
Test CRC 386A2C2B
Copy CRC 386A2C2B
Track not present in AccurateRip database
Copy OK
Track 2
Filename H:\EACTemp\Bill Evans, Warne Marsh, Lee Konitz, Jimmy Garrison, Paul Motian - Live At The Half Note (2008) [FLAC] {2 CD}\CD 2\02 - Lennie-Bird.wav
Peak level 94.5 %
Track quality 100.0 %
Test CRC B40F5DE1
Copy CRC B40F5DE1
Track not present in AccurateRip database
Copy OK
Track 3
Filename H:\EACTemp\Bill Evans, Warne Marsh, Lee Konitz, Jimmy Garrison, Paul Motian - Live At The Half Note (2008) [FLAC] {2 CD}\CD 2\03 - Subconscious-Lee.wav
Peak level 81.8 %
Track quality 100.0 %
Test CRC 6A3C345A
Copy CRC 6A3C345A
Track not present in AccurateRip database
Copy OK
Track 4
Filename H:\EACTemp\Bill Evans, Warne Marsh, Lee Konitz, Jimmy Garrison, Paul Motian - Live At The Half Note (2008) [FLAC] {2 CD}\CD 2\04 - Background Music.wav
Peak level 89.4 %
Track quality 100.0 %
Test CRC 39D719AF
Copy CRC 39D719AF
Track not present in AccurateRip database
Copy OK
Track 5
Filename H:\EACTemp\Bill Evans, Warne Marsh, Lee Konitz, Jimmy Garrison, Paul Motian - Live At The Half Note (2008) [FLAC] {2 CD}\CD 2\05 - It's You or No One.wav
Peak level 75.3 %
Track quality 100.0 %
Test CRC 4BCF1F1C
Copy CRC 4BCF1F1C
Track not present in AccurateRip database
Copy OK
Track 6
Filename H:\EACTemp\Bill Evans, Warne Marsh, Lee Konitz, Jimmy Garrison, Paul Motian - Live At The Half Note (2008) [FLAC] {2 CD}\CD 2\06 - Body and Soul.wav
Peak level 74.9 %
Track quality 100.0 %
Test CRC CDECA20A
Copy CRC CDECA20A
Track not present in AccurateRip database
Copy OK
Track 7
Filename H:\EACTemp\Bill Evans, Warne Marsh, Lee Konitz, Jimmy Garrison, Paul Motian - Live At The Half Note (2008) [FLAC] {2 CD}\CD 2\07 - All the Things You Are.wav
Peak level 74.2 %
Track quality 100.0 %
Test CRC F86924B6
Copy CRC F86924B6
Track not present in AccurateRip database
Copy OK
Track 8
Filename H:\EACTemp\Bill Evans, Warne Marsh, Lee Konitz, Jimmy Garrison, Paul Motian - Live At The Half Note (2008) [FLAC] {2 CD}\CD 2\08 - You Go to My Head.wav
Peak level 78.1 %
Track quality 99.9 %
Test CRC 6AD922F2
Copy CRC 6AD922F2
Track not present in AccurateRip database
Copy OK
Track 9
Filename H:\EACTemp\Bill Evans, Warne Marsh, Lee Konitz, Jimmy Garrison, Paul Motian - Live At The Half Note (2008) [FLAC] {2 CD}\CD 2\09 - Invention in a Minor.wav
Peak level 71.8 %
Track quality 100.0 %
Test CRC 4891E965
Copy CRC 4891E965
Track not present in AccurateRip database
Copy OK
Track 10
Filename H:\EACTemp\Bill Evans, Warne Marsh, Lee Konitz, Jimmy Garrison, Paul Motian - Live At The Half Note (2008) [FLAC] {2 CD}\CD 2\10 - Easy Livin'.wav
Peak level 77.7 %
Track quality 100.0 %
Test CRC 344AD9EA
Copy CRC 344AD9EA
Track not present in AccurateRip database
Copy OK
Track 11
Filename H:\EACTemp\Bill Evans, Warne Marsh, Lee Konitz, Jimmy Garrison, Paul Motian - Live At The Half Note (2008) [FLAC] {2 CD}\CD 2\11 - Star Eyes.wav
Peak level 85.1 %
Track quality 100.0 %
Test CRC 263FA3DA
Copy CRC 263FA3DA
Track not present in AccurateRip database
Copy OK
None of the tracks are present in the AccurateRip database
No errors occurred
End of status report
 
Содержание индексной карты (.CUE)
REM GENRE Jazz
REM DATE 2008
REM DISCID 7810C309
REM COMMENT "ExactAudioCopy v0.99pb4"
PERFORMER "Bill Evans, Warne Marsh, Lee Konitz, Jimmy Garrison, Paul Motian"
TITLE "Live At The Half Note {CD 1}"
FILE "01 - Palo Alto.wav" WAVE
TRACK 01 AUDIO
TITLE "Palo Alto"
PERFORMER "Bill Evans, Warne Marsh, Lee Konitz, Jimmy Garrison, Paul Motian"
INDEX 01 00:00:00
FILE "02 - How About You.wav" WAVE
TRACK 02 AUDIO
TITLE "How About You"
PERFORMER "Bill Evans, Warne Marsh, Lee Konitz, Jimmy Garrison, Paul Motian"
INDEX 01 00:00:00
FILE "03 - My Melancholy Baby.wav" WAVE
TRACK 03 AUDIO
TITLE "My Melancholy Baby"
PERFORMER "Bill Evans, Warne Marsh, Lee Konitz, Jimmy Garrison, Paul Motian"
INDEX 01 00:00:00
FILE "04 - Scrapple From The Apple.wav" WAVE
TRACK 04 AUDIO
TITLE "Scrapple From The Apple"
PERFORMER "Bill Evans, Warne Marsh, Lee Konitz, Jimmy Garrison, Paul Motian"
INDEX 01 00:00:00
FILE "05 - You Stepped Out Of A Dream.wav" WAVE
TRACK 05 AUDIO
TITLE "You Stepped Out Of A Dream"
PERFORMER "Bill Evans, Warne Marsh, Lee Konitz, Jimmy Garrison, Paul Motian"
INDEX 01 00:00:00
FILE "06 - 317 East 32nd Street.wav" WAVE
TRACK 06 AUDIO
TITLE "317 East 32nd Street"
PERFORMER "Bill Evans, Warne Marsh, Lee Konitz, Jimmy Garrison, Paul Motian"
INDEX 01 00:00:00
FILE "07 - April.wav" WAVE
TRACK 07 AUDIO
TITLE "April"
PERFORMER "Bill Evans, Warne Marsh, Lee Konitz, Jimmy Garrison, Paul Motian"
INDEX 01 00:00:00
FILE "08 - It's You Or No One.wav" WAVE
TRACK 08 AUDIO
TITLE "It's You Or No One"
PERFORMER "Bill Evans, Warne Marsh, Lee Konitz, Jimmy Garrison, Paul Motian"
INDEX 01 00:00:00
FILE "09 - Just Friends.wav" WAVE
TRACK 09 AUDIO
TITLE "Just Friends"
PERFORMER "Bill Evans, Warne Marsh, Lee Konitz, Jimmy Garrison, Paul Motian"
INDEX 01 00:00:00
===========================================================================================
REM GENRE Jazz
REM DATE 2008
REM DISCID 9F100A0B
REM COMMENT "ExactAudioCopy v0.99pb4"
PERFORMER "Bill Evans, Warne Marsh, Lee Konitz, Jimmy Garrison, Paul Motian"
TITLE "Live At The Half Note {CD 2} (Bonus)"
FILE "01 - Baby, Baby All the Time.wav" WAVE
TRACK 01 AUDIO
TITLE "Baby, Baby All the Time"
PERFORMER "Bill Evans, Warne Marsh, Lee Konitz, Jimmy Garrison, Paul Motian"
INDEX 01 00:00:00
FILE "02 - Lennie-Bird.wav" WAVE
TRACK 02 AUDIO
TITLE "Lennie-Bird"
PERFORMER "Bill Evans, Warne Marsh, Lee Konitz, Jimmy Garrison, Paul Motian"
INDEX 01 00:00:00
FILE "03 - Subconscious-Lee.wav" WAVE
TRACK 03 AUDIO
TITLE "Subconscious-Lee"
PERFORMER "Bill Evans, Warne Marsh, Lee Konitz, Jimmy Garrison, Paul Motian"
INDEX 01 00:00:00
FILE "04 - Background Music.wav" WAVE
TRACK 04 AUDIO
TITLE "Background Music"
PERFORMER "Bill Evans, Warne Marsh, Lee Konitz, Jimmy Garrison, Paul Motian"
INDEX 01 00:00:00
FILE "05 - It's You or No One.wav" WAVE
TRACK 05 AUDIO
TITLE "It's You or No One"
PERFORMER "Bill Evans, Warne Marsh, Lee Konitz, Jimmy Garrison, Paul Motian"
INDEX 01 00:00:00
FILE "06 - Body and Soul.wav" WAVE
TRACK 06 AUDIO
TITLE "Body and Soul"
PERFORMER "Bill Evans, Warne Marsh, Lee Konitz, Jimmy Garrison, Paul Motian"
INDEX 01 00:00:00
FILE "07 - All the Things You Are.wav" WAVE
TRACK 07 AUDIO
TITLE "All the Things You Are"
PERFORMER "Bill Evans, Warne Marsh, Lee Konitz, Jimmy Garrison, Paul Motian"
INDEX 01 00:00:00
FILE "08 - You Go to My Head.wav" WAVE
TRACK 08 AUDIO
TITLE "You Go to My Head"
PERFORMER "Bill Evans, Warne Marsh, Lee Konitz, Jimmy Garrison, Paul Motian"
INDEX 01 00:00:00
FILE "09 - Invention in a Minor.wav" WAVE
TRACK 09 AUDIO
TITLE "Invention in a Minor"
PERFORMER "Bill Evans, Warne Marsh, Lee Konitz, Jimmy Garrison, Paul Motian"
INDEX 01 00:00:00
FILE "10 - Easy Livin'.wav" WAVE
TRACK 10 AUDIO
TITLE "Easy Livin'"
PERFORMER "Bill Evans, Warne Marsh, Lee Konitz, Jimmy Garrison, Paul Motian"
INDEX 01 00:00:00
FILE "11 - Star Eyes.wav" WAVE
TRACK 11 AUDIO
TITLE "Star Eyes"
PERFORMER "Bill Evans, Warne Marsh, Lee Konitz, Jimmy Garrison, Paul Motian"
INDEX 01 00:00:00
 
Лог проверки качества
AUDIOCHECKER v2.0 beta (build 457) - by Dester - opdester@freemail.hu
----------------------------------------------------------
Начато: четверг, 24. 11. 2011. - 18:10.24
Найдено файлов: 9
1 -===- C:\Bill Evans, Warne Marsh, Lee Konitz, Paul Motian - Live At The Half Note (1959, 1976) [2CD] {Jazz Lips Music 2008}\CD1\01 - Palo Alto.FLAC
Извлечение успешно выполнено
Заключение: этот трек - CDDA с вероятностью 100%
Временный файл удалён.
2 -===- C:\Bill Evans, Warne Marsh, Lee Konitz, Paul Motian - Live At The Half Note (1959, 1976) [2CD] {Jazz Lips Music 2008}\CD1\02 - How About You.FLAC
Извлечение успешно выполнено
Заключение: этот трек - CDDA с вероятностью 100%
Временный файл удалён.
3 -===- C:\Bill Evans, Warne Marsh, Lee Konitz, Paul Motian - Live At The Half Note (1959, 1976) [2CD] {Jazz Lips Music 2008}\CD1\03 - My Melancholy Baby.FLAC
Извлечение успешно выполнено
Заключение: этот трек - CDDA с вероятностью 100%
Временный файл удалён.
4 -===- C:\Bill Evans, Warne Marsh, Lee Konitz, Paul Motian - Live At The Half Note (1959, 1976) [2CD] {Jazz Lips Music 2008}\CD1\04 - Scrapple From The Apple.FLAC
Извлечение успешно выполнено
Заключение: этот трек - CDDA с вероятностью 100%
Временный файл удалён.
5 -===- C:\Bill Evans, Warne Marsh, Lee Konitz, Paul Motian - Live At The Half Note (1959, 1976) [2CD] {Jazz Lips Music 2008}\CD1\05 - You Stepped Out Of A Dream.FLAC
Извлечение успешно выполнено
Заключение: этот трек - CDDA с вероятностью 100%
Временный файл удалён.
6 -===- C:\Bill Evans, Warne Marsh, Lee Konitz, Paul Motian - Live At The Half Note (1959, 1976) [2CD] {Jazz Lips Music 2008}\CD1\06 - 317 East 32nd Street.FLAC
Извлечение успешно выполнено
Заключение: этот трек - CDDA с вероятностью 100%
Временный файл удалён.
7 -===- C:\Bill Evans, Warne Marsh, Lee Konitz, Paul Motian - Live At The Half Note (1959, 1976) [2CD] {Jazz Lips Music 2008}\CD1\07 - April.FLAC
Извлечение успешно выполнено
Заключение: этот трек - CDDA с вероятностью 100%
Временный файл удалён.
8 -===- C:\Bill Evans, Warne Marsh, Lee Konitz, Paul Motian - Live At The Half Note (1959, 1976) [2CD] {Jazz Lips Music 2008}\CD1\08 - It's You Or No One.FLAC
Извлечение успешно выполнено
Заключение: этот трек - CDDA с вероятностью 100%
Временный файл удалён.
9 -===- C:\Bill Evans, Warne Marsh, Lee Konitz, Paul Motian - Live At The Half Note (1959, 1976) [2CD] {Jazz Lips Music 2008}\CD1\09 - Just Friends.FLAC
Извлечение успешно выполнено
Заключение: этот трек - CDDA с вероятностью 100%
Временный файл удалён.
Завершено: четверг, 24. 11. 2011. - 19:00.43 (Время операции: 0:50.18)
=============================================================================================
AUDIOCHECKER v2.0 beta (build 457) - by Dester - opdester@freemail.hu
----------------------------------------------------------
Начато: четверг, 24. 11. 2011. - 19:07.40
Найдено файлов: 11
01 -===- C:\Bill Evans, Warne Marsh, Lee Konitz, Paul Motian - Live At The Half Note (1959, 1976) [2CD] {Jazz Lips Music 2008}\CD2\01 - Baby, Baby All the Time.FLAC
Извлечение успешно выполнено
Заключение: этот трек - CDDA с вероятностью 100%
Временный файл удалён.
02 -===- C:\Bill Evans, Warne Marsh, Lee Konitz, Paul Motian - Live At The Half Note (1959, 1976) [2CD] {Jazz Lips Music 2008}\CD2\02 - Lennie-Bird.FLAC
Извлечение успешно выполнено
Заключение: этот трек - CDDA с вероятностью 100%
Временный файл удалён.
03 -===- C:\Bill Evans, Warne Marsh, Lee Konitz, Paul Motian - Live At The Half Note (1959, 1976) [2CD] {Jazz Lips Music 2008}\CD2\03 - Subconscious-Lee.FLAC
Извлечение успешно выполнено
Заключение: этот трек - CDDA с вероятностью 100%
Временный файл удалён.
04 -===- C:\Bill Evans, Warne Marsh, Lee Konitz, Paul Motian - Live At The Half Note (1959, 1976) [2CD] {Jazz Lips Music 2008}\CD2\04 - Background Music.FLAC
Извлечение успешно выполнено
Заключение: этот трек - CDDA с вероятностью 100%
Временный файл удалён.
05 -===- C:\Bill Evans, Warne Marsh, Lee Konitz, Paul Motian - Live At The Half Note (1959, 1976) [2CD] {Jazz Lips Music 2008}\CD2\05 - It's You or No One.FLAC
Извлечение успешно выполнено
Заключение: этот трек - CDDA с вероятностью 100%
Временный файл удалён.
06 -===- C:\Bill Evans, Warne Marsh, Lee Konitz, Paul Motian - Live At The Half Note (1959, 1976) [2CD] {Jazz Lips Music 2008}\CD2\06 - Body and Soul.FLAC
Извлечение успешно выполнено
Заключение: этот трек - CDDA с вероятностью 100%
Временный файл удалён.
07 -===- C:\Bill Evans, Warne Marsh, Lee Konitz, Paul Motian - Live At The Half Note (1959, 1976) [2CD] {Jazz Lips Music 2008}\CD2\07 - All the Things You Are.FLAC
Извлечение успешно выполнено
Заключение: этот трек - CDDA с вероятностью 100%
Временный файл удалён.
08 -===- C:\Bill Evans, Warne Marsh, Lee Konitz, Paul Motian - Live At The Half Note (1959, 1976) [2CD] {Jazz Lips Music 2008}\CD2\08 - You Go to My Head.FLAC
Извлечение успешно выполнено
Заключение: этот трек - CDDA с вероятностью 100%
Временный файл удалён.
09 -===- C:\Bill Evans, Warne Marsh, Lee Konitz, Paul Motian - Live At The Half Note (1959, 1976) [2CD] {Jazz Lips Music 2008}\CD2\09 - Invention in a Minor.FLAC
Извлечение успешно выполнено
Заключение: этот трек - CDDA с вероятностью 100%
Временный файл удалён.
10 -===- C:\Bill Evans, Warne Marsh, Lee Konitz, Paul Motian - Live At The Half Note (1959, 1976) [2CD] {Jazz Lips Music 2008}\CD2\10 - Easy Livin'.FLAC
Извлечение успешно выполнено
Заключение: этот трек - CDDA с вероятностью 100%
Временный файл удалён.
11 -===- C:\Bill Evans, Warne Marsh, Lee Konitz, Paul Motian - Live At The Half Note (1959, 1976) [2CD] {Jazz Lips Music 2008}\CD2\11 - Star Eyes.FLAC
Извлечение успешно выполнено
Заключение: этот трек - CDDA с вероятностью 99%
Временный файл удалён.
Завершено: четверг, 24. 11. 2011. - 19:45.52 (Время операции: 0:38.11)
 
Скриншот спектра частот
 
Состав
Bill Evans - Piano.
Warne Marsh - Tenor Sax.
Lee Konitz - Alto Sax.
Jimmy Garrison - Bass.
Paul Motian - Drums.
Peter Ind - Bass.
Al Levitt - Drums.
Any questions - support@pro-jazz.com.
Есть вопросы - support@pro-jazz.com
22:45
280
Нет комментариев. Ваш будет первым!