Вы используете незарегистрированную версию компонента "Вкладки"!

Поиск

(Cool, Mainstream Jazz) Lester Young & Harry "Sweets" Edison - Going For Myself... (1958) - 2012, FLAC (tracks+.cue), lossless

(Cool, Mainstream Jazz) Lester Young & Harry "Sweets" Edison - Going For Myself... (1958) - 2012, FLAC (tracks+.cue), lossless
Треклист:
Lester Young & Harry "Sweets" Edison – Going For Myself... (1958)
Жанр: Cool, Mainstream Jazz
Год издания: 2012
Издатель (лейбл): Poll Winners Records
Номер по каталогу: PWR 27294
Аудиокодек: FLAC (*.flac)
Тип рипа: tracks+.cue
Битрейт аудио: lossless
Продолжительность: 75:51
Релизер: ruskaval
Наличие сканов в содержимом раздачи: да
Треклист:
01. Flic (6:16)
02. Love Is Here To Stay (5:53)
03. St. Tropez (10:06)
04. Waldorf Blues (8:19)
05. Sunday (6:55)
06. You're Getting To Be A Habit With Me (5:21)
07. Ballad Medley: A Ghost Of A Chance / Cover The Waterfront (5:52)
08. Perdido (6:14)
09. St. Tropez [alt. take] (6:56)
10. You're Getting To Be A Habit With Me [alt. take] (7:43)
11. Waldorf Blues [alt. take] (6:17)
 
 
Лог создания рипа
Exact Audio Copy V0.99 prebeta 5 from 4. May 2009
EAC extraction logfile from 8. September 2012, 21:46
Lester Young & Harry 'Sweets' Edison / Going For Myself
Used drive : TSSTcorpCD/DVDW TS-H552L Adapter: 6 ID: 0
Read mode : Secure
Utilize accurate stream : Yes
Defeat audio cache : Yes
Make use of C2 pointers : No
Read offset correction : 6
Overread into Lead-In and Lead-Out : No
Fill up missing offset samples with silence : Yes
Delete leading and trailing silent blocks : No
Null samples used in CRC calculations : Yes
Used interface : Native Win32 interface for Win NT & 2000
Gap handling : Appended to previous track
Used output format : User Defined Encoder
Selected bitrate : 1024 kBit/s
Quality : High
Add ID3 tag : No
Command line compressor : C:\Program Files (x86)\FLAC\flac.exe
Additional command line options : -8 -V -T "ARTIST=%a" -T "TITLE=%t" -T "ALBUM=%g" -T "DATE=%y" -T "TRACKNUMBER=%n" -T "GENRE=%m" -T "COMMENT=EAC FLAC -8" %s
TOC of the extracted CD
Track | Start | Length | Start sector | End sector
---------------------------------------------------------
1 | 0:00.00 | 6:16.06 | 0 | 28205
2 | 6:16.06 | 5:53.19 | 28206 | 54699
3 | 12:09.25 | 10:05.38 | 54700 | 100112
4 | 22:14.63 | 8:19.00 | 100113 | 137537
5 | 30:33.63 | 6:55.00 | 137538 | 168662
6 | 37:28.63 | 5:20.38 | 168663 | 192700
7 | 42:49.26 | 5:51.57 | 192701 | 219082
8 | 48:41.08 | 6:14.19 | 219083 | 247151
9 | 54:55.27 | 6:55.38 | 247152 | 278314
10 | 61:50.65 | 7:43.00 | 278315 | 313039
11 | 69:33.65 | 6:17.33 | 313040 | 341347
Track 1
Filename C:\EAC\Lester Young & Harry 'Sweets' Edison - Going For Myself (1958) [FLAC] {2012 Poll Winners}\01 - Flic.wav
Pre-gap length 0:00:02.00
Peak level 91.2 %
Track quality 100.0 %
Test CRC B58F690A
Copy CRC B58F690A
Track not present in AccurateRip database
Copy OK
Track 2
Filename C:\EAC\Lester Young & Harry 'Sweets' Edison - Going For Myself (1958) [FLAC] {2012 Poll Winners}\02 - Love Is Here To Stay.wav
Peak level 91.2 %
Track quality 100.0 %
Test CRC E890B6C2
Copy CRC E890B6C2
Track not present in AccurateRip database
Copy OK
Track 3
Filename C:\EAC\Lester Young & Harry 'Sweets' Edison - Going For Myself (1958) [FLAC] {2012 Poll Winners}\03 - St. Tropez.wav
Peak level 91.2 %
Track quality 100.0 %
Test CRC 56CF593B
Copy CRC 56CF593B
Track not present in AccurateRip database
Copy OK
Track 4
Filename C:\EAC\Lester Young & Harry 'Sweets' Edison - Going For Myself (1958) [FLAC] {2012 Poll Winners}\04 - Waldorf Blues.wav
Peak level 91.2 %
Track quality 100.0 %
Test CRC E74FDBC7
Copy CRC E74FDBC7
Track not present in AccurateRip database
Copy OK
Track 5
Filename C:\EAC\Lester Young & Harry 'Sweets' Edison - Going For Myself (1958) [FLAC] {2012 Poll Winners}\05 - Sunday.wav
Peak level 91.2 %
Track quality 100.0 %
Test CRC C40545E0
Copy CRC C40545E0
Track not present in AccurateRip database
Copy OK
Track 6
Filename C:\EAC\Lester Young & Harry 'Sweets' Edison - Going For Myself (1958) [FLAC] {2012 Poll Winners}\06 - You're Getting To Be A Habit With Me.wav
Peak level 91.2 %
Track quality 100.0 %
Test CRC 2072751F
Copy CRC 2072751F
Track not present in AccurateRip database
Copy OK
Track 7
Filename C:\EAC\Lester Young & Harry 'Sweets' Edison - Going For Myself (1958) [FLAC] {2012 Poll Winners}\07 - Ballad Medley - A Ghost Of A Chance , Cover The Waterfront.wav
Peak level 91.2 %
Track quality 100.0 %
Test CRC FBDD5BD8
Copy CRC FBDD5BD8
Track not present in AccurateRip database
Copy OK
Track 8
Filename C:\EAC\Lester Young & Harry 'Sweets' Edison - Going For Myself (1958) [FLAC] {2012 Poll Winners}\08 - Perdido.wav
Peak level 91.2 %
Track quality 99.9 %
Test CRC 034E7DDE
Copy CRC 034E7DDE
Track not present in AccurateRip database
Copy OK
Track 9
Filename C:\EAC\Lester Young & Harry 'Sweets' Edison - Going For Myself (1958) [FLAC] {2012 Poll Winners}\09 - St. Tropez [alt. take].wav
Peak level 91.2 %
Track quality 100.0 %
Test CRC E49AE896
Copy CRC E49AE896
Track not present in AccurateRip database
Copy OK
Track 10
Filename C:\EAC\Lester Young & Harry 'Sweets' Edison - Going For Myself (1958) [FLAC] {2012 Poll Winners}\10 - You're Getting To Be A Habit With Me [alt. take].wav
Peak level 91.2 %
Track quality 100.0 %
Test CRC DA433003
Copy CRC DA433003
Track not present in AccurateRip database
Copy OK
Track 11
Filename C:\EAC\Lester Young & Harry 'Sweets' Edison - Going For Myself (1958) [FLAC] {2012 Poll Winners}\11 - Waldorf Blues [alt. take].wav
Peak level 100.0 %
Track quality 100.0 %
Test CRC 5EF41E9E
Copy CRC 5EF41E9E
Track not present in AccurateRip database
Copy OK
None of the tracks are present in the AccurateRip database
No errors occurred
End of status report
 
Содержание индексной карты (.CUE)
REM GENRE Jazz
REM DATE 2012
REM DISCID 9811C70B
REM COMMENT "ExactAudioCopy v0.99pb5"
PERFORMER "Lester Young & Harry 'Sweets' Edison"
TITLE "Going For Myself"
FILE "01 - Flic.wav" WAVE
TRACK 01 AUDIO
TITLE "Flic"
PERFORMER "Lester Young & Harry 'Sweets' Edison"
INDEX 01 00:00:00
FILE "02 - Love Is Here To Stay.wav" WAVE
TRACK 02 AUDIO
TITLE "Love Is Here To Stay"
PERFORMER "Lester Young & Harry 'Sweets' Edison"
INDEX 01 00:00:00
FILE "03 - St. Tropez.wav" WAVE
TRACK 03 AUDIO
TITLE "St. Tropez"
PERFORMER "Lester Young & Harry 'Sweets' Edison"
INDEX 01 00:00:00
FILE "04 - Waldorf Blues.wav" WAVE
TRACK 04 AUDIO
TITLE "Waldorf Blues"
PERFORMER "Lester Young & Harry 'Sweets' Edison"
INDEX 01 00:00:00
FILE "05 - Sunday.wav" WAVE
TRACK 05 AUDIO
TITLE "Sunday"
PERFORMER "Lester Young & Harry 'Sweets' Edison"
INDEX 01 00:00:00
FILE "06 - You're Getting To Be A Habit With Me.wav" WAVE
TRACK 06 AUDIO
TITLE "You're Getting To Be A Habit With Me"
PERFORMER "Lester Young & Harry 'Sweets' Edison"
INDEX 01 00:00:00
FILE "07 - Ballad Medley - A Ghost Of A Chance , Cover The Waterfront.wav" WAVE
TRACK 07 AUDIO
TITLE "Ballad Medley : A Ghost Of A Chance / Cover The Waterfront"
PERFORMER "Lester Young & Harry 'Sweets' Edison"
INDEX 01 00:00:00
FILE "08 - Perdido.wav" WAVE
TRACK 08 AUDIO
TITLE "Perdido"
PERFORMER "Lester Young & Harry 'Sweets' Edison"
INDEX 01 00:00:00
FILE "09 - St. Tropez [alt. take].wav" WAVE
TRACK 09 AUDIO
TITLE "St. Tropez [alt. take]"
PERFORMER "Lester Young & Harry 'Sweets' Edison"
INDEX 01 00:00:00
FILE "10 - You're Getting To Be A Habit With Me [alt. take].wav" WAVE
TRACK 10 AUDIO
TITLE "You're Getting To Be A Habit With Me [alt. take]"
PERFORMER "Lester Young & Harry 'Sweets' Edison"
INDEX 01 00:00:00
FILE "11 - Waldorf Blues [alt. take].wav" WAVE
TRACK 11 AUDIO
TITLE "Waldorf Blues [alt. take]"
PERFORMER "Lester Young & Harry 'Sweets' Edison"
INDEX 01 00:00:00
Any questions - support@pro-jazz.com.
Есть вопросы - support@pro-jazz.com
03:19
251
Нет комментариев. Ваш будет первым!