Поиск

(Cool, Mainstream Jazz) [CD] Bobby Jaspar - Three Classic Albums Plus (2CD) - 2017, FLAC (tracks+.cue), lossless

(Cool, Mainstream Jazz) [CD] Bobby Jaspar - Three Classic Albums Plus (2CD) - 2017, FLAC (tracks+.cue), lossless
Треклист:
Bobby Jaspar - Three Classic Albums Plus (2CD)

Жанр: Cool, Mainstream Jazz
Носитель: CD
Год издания: 2017
Издатель (лейбл): Avid Jazz
Номер по каталогу: EMSC 1237
Аудиокодек: FLAC (*.flac)
Тип рипа: tracks+.cue
Битрейт аудио: lossless
Продолжительность: 01:20:41 / 01:11:43
Rip by dtromp
Наличие сканов в содержимом раздачи: да 
 
 
CD 1
Треклист:
01. Bag's Groove (4:46)
02. Memory Of Dick (5:38)
03. Milestones (5:55)
04. Minor Drops (5:01)
05. I'll Remember April (5:46)
06. You Stepped Out Of A Dream (3:37)
07. I Can't Get Started (With You) (6:06)
08. A Night In Tunisia (4:07)
09. Seven Up (9:00)
10. My Old Flame (6:01)
11. All Of You (5:56)
12. Doublemint (6:53)
13. Before Dawn (6:14)
14. Sweet Blanche (5:41)
 
 
 
Лог создания рипа
Exact Audio Copy V1.3 from 2. September 2016
EAC extraction logfile from 18. July 2017, 20:01
Bobby Jaspar / Three Classic Albums Plus CD1
Used drive  : ATAPI   iHBS112   2   Adapter: 1  ID: 1
Read mode               : Secure
Utilize accurate stream : Yes
Defeat audio cache      : Yes
Make use of C2 pointers : No
Read offset correction                      : 6
Overread into Lead-In and Lead-Out          : No
Fill up missing offset samples with silence : Yes
Delete leading and trailing silent blocks   : No
Null samples used in CRC calculations       : Yes
Used interface                              : Native Win32 interface for Win NT & 2000
Gap handling                                : Appended to previous track
Used output format              : User Defined Encoder
Selected bitrate                : 128 kBit/s
Quality                         : High
Add ID3 tag                     : No
Command line compressor         : C:\Program Files (x86)\Exact Audio Copy\Flac\flac.exe
Additional command line options : -8 -V -T "ARTIST=%artist%" -T "TITLE=%title%" -T "ALBUM=%albumtitle%" -T "DATE=%year%" -T "TRACKNUMBER=%tracknr%" -T "GENRE=%genre%" -T "PERFORMER=%albuminterpret%" -T "COMPOSER=%composer%" -T "ALBUMARTIST=%albumartist%" -T "DISCNUMBER=%cdnumber%" -T "TOTALDISCS=%totalcds%" -T "TOTALTRACKS=%numtracks%" -T "COMMENT=EAC Secure Mode, Test & Copy, AccurateRip, FLAC -8" %source% -o %dest%
TOC of the extracted CD
     Track |   Start  |  Length  | Start sector | End sector
    ---------------------------------------------------------
        1  |  0:00.00 |  4:46.14 |         0    |    21463
        2  |  4:46.14 |  5:37.69 |     21464    |    46807
        3  | 10:24.08 |  5:55.00 |     46808    |    73432
        4  | 16:19.08 |  5:01.29 |     73433    |    96036
        5  | 21:20.37 |  5:46.10 |     96037    |   121996
        6  | 27:06.47 |  3:37.27 |    121997    |   138298
        7  | 30:43.74 |  6:06.01 |    138299    |   165749
        8  | 36:50.00 |  4:06.59 |    165750    |   184258
        9  | 40:56.59 |  8:59.51 |    184259    |   224734
       10  | 49:56.35 |  6:01.19 |    224735    |   251828
       11  | 55:57.54 |  5:55.48 |    251829    |   278501
       12  | 61:53.27 |  6:52.44 |    278502    |   309445
       13  | 68:45.71 |  6:14.22 |    309446    |   337517
       14  | 75:00.18 |  5:40.38 |    337518    |   363055
Track  1
     Filename J:\DL\Bobby Jaspar - Three Classic Album Plus (2017) [FLAC]\01 - Bag's Groove.wav
     Pre-gap length  0:00:02.00
     Peak level 82.5 %
     Extraction speed 5.4 X
     Track quality 99.9 %
     Test CRC 42C96F2D
     Copy CRC 42C96F2D
     Track not present in AccurateRip database
     Copy OK
Track  2
     Filename J:\DL\Bobby Jaspar - Three Classic Album Plus (2017) [FLAC]\02 - Memory Of Dick.wav
     Peak level 83.1 %
     Extraction speed 7.0 X
     Track quality 100.0 %
     Test CRC 701E8D51
     Copy CRC 701E8D51
     Track not present in AccurateRip database
     Copy OK
Track  3
     Filename J:\DL\Bobby Jaspar - Three Classic Album Plus (2017) [FLAC]\03 - Milestones.wav
     Peak level 88.8 %
     Extraction speed 7.7 X
     Track quality 100.0 %
     Test CRC 370225C8
     Copy CRC 370225C8
     Track not present in AccurateRip database
     Copy OK
Track  4
     Filename J:\DL\Bobby Jaspar - Three Classic Album Plus (2017) [FLAC]\04 - Minor Drops.wav
     Peak level 87.9 %
     Extraction speed 8.1 X
     Track quality 100.0 %
     Test CRC 1939C185
     Copy CRC 1939C185
     Track not present in AccurateRip database
     Copy OK
Track  5
     Filename J:\DL\Bobby Jaspar - Three Classic Album Plus (2017) [FLAC]\05 - I'll Remember April.wav
     Peak level 92.0 %
     Extraction speed 8.7 X
     Track quality 100.0 %
     Test CRC F29AA7DF
     Copy CRC F29AA7DF
     Track not present in AccurateRip database
     Copy OK
Track  6
     Filename J:\DL\Bobby Jaspar - Three Classic Album Plus (2017) [FLAC]\06 - You Stepped Out Of A Dream.wav
     Peak level 97.8 %
     Extraction speed 8.7 X
     Track quality 100.0 %
     Test CRC 1E47E9C2
     Copy CRC 1E47E9C2
     Track not present in AccurateRip database
     Copy OK
Track  7
     Filename J:\DL\Bobby Jaspar - Three Classic Album Plus (2017) [FLAC]\07 - I Can't Get Started (With You).wav
     Peak level 88.2 %
     Extraction speed 9.7 X
     Track quality 100.0 %
     Test CRC FF799480
     Copy CRC FF799480
     Track not present in AccurateRip database
     Copy OK
Track  8
     Filename J:\DL\Bobby Jaspar - Three Classic Album Plus (2017) [FLAC]\08 - A Night In Tunisia.wav
     Peak level 88.4 %
     Extraction speed 9.7 X
     Track quality 100.0 %
     Test CRC 3CE8DE97
     Copy CRC 3CE8DE97
     Track not present in AccurateRip database
     Copy OK
Track  9
     Filename J:\DL\Bobby Jaspar - Three Classic Album Plus (2017) [FLAC]\09 - Seven Up.wav
     Peak level 90.0 %
     Extraction speed 10.9 X
     Track quality 100.0 %
     Test CRC A4478D02
     Copy CRC A4478D02
     Track not present in AccurateRip database
     Copy OK
Track 10
     Filename J:\DL\Bobby Jaspar - Three Classic Album Plus (2017) [FLAC]\10 - My Old Flame.wav
     Peak level 78.1 %
     Extraction speed 11.1 X
     Track quality 100.0 %
     Test CRC 617CA3E6
     Copy CRC 617CA3E6
     Track not present in AccurateRip database
     Copy OK
Track 11
     Filename J:\DL\Bobby Jaspar - Three Classic Album Plus (2017) [FLAC]\11 - All Of You.wav
     Peak level 90.0 %
     Extraction speed 11.5 X
     Track quality 100.0 %
     Test CRC 09DC6826
     Copy CRC 09DC6826
     Track not present in AccurateRip database
     Copy OK
Track 12
     Filename J:\DL\Bobby Jaspar - Three Classic Album Plus (2017) [FLAC]\12 - Doublemint.wav
     Peak level 90.0 %
     Extraction speed 12.1 X
     Track quality 100.0 %
     Test CRC 34359E4A
     Copy CRC 34359E4A
     Track not present in AccurateRip database
     Copy OK
Track 13
     Filename J:\DL\Bobby Jaspar - Three Classic Album Plus (2017) [FLAC]\13 - Before Dawn.wav
     Peak level 91.6 %
     Extraction speed 12.4 X
     Track quality 100.0 %
     Test CRC 842A8780
     Copy CRC 842A8780
     Track not present in AccurateRip database
     Copy OK
Track 14
     Filename J:\DL\Bobby Jaspar - Three Classic Album Plus (2017) [FLAC]\14 - Sweet Blanche.wav
     Peak level 90.0 %
     Extraction speed 12.5 X
     Track quality 100.0 %
     Test CRC BAE448C7
     Copy CRC BAE448C7
     Track not present in AccurateRip database
     Copy OK
None of the tracks are present in the AccurateRip database
No errors occurred
End of status report
---- CUETools DB Plugin V2.1.6
[CTDB TOCID: J7AFsy9mN7sbImgsrt8UX5HQpQE-] disk not present in database
Submit result: J7AFsy9mN7sbImgsrt8UX5HQpQE- has been uploaded
==== Log checksum 9B5A88867384A503C626921721BCED2C91C496CB6F18CB7E5CA422438066DE67 ====
 
 
Содержание индексной карты (.CUE)
REM GENRE Jazz
REM DATE 2017
REM DISCID D712E80E
REM COMMENT "ExactAudioCopy v1.3"
PERFORMER "Bobby Jaspar"
TITLE "Three Classic Albums Plus CD1"
REM COMPOSER ""
FILE "01 - Bag's Groove.wav" WAVE
  TRACK 01 AUDIO
    TITLE "Bag's Groove"
    PERFORMER "Bobby Jaspar"
    REM COMPOSER ""
    INDEX 01 00:00:00
FILE "02 - Memory Of Dick.wav" WAVE
  TRACK 02 AUDIO
    TITLE "Memory Of Dick"
    PERFORMER "Bobby Jaspar"
    REM COMPOSER ""
    INDEX 01 00:00:00
FILE "03 - Milestones.wav" WAVE
  TRACK 03 AUDIO
    TITLE "Milestones"
    PERFORMER "Bobby Jaspar"
    REM COMPOSER ""
    INDEX 01 00:00:00
FILE "04 - Minor Drops.wav" WAVE
  TRACK 04 AUDIO
    TITLE "Minor Drops"
    PERFORMER "Bobby Jaspar"
    REM COMPOSER ""
    INDEX 01 00:00:00
FILE "05 - I'll Remember April.wav" WAVE
  TRACK 05 AUDIO
    TITLE "I'll Remember April"
    PERFORMER "Bobby Jaspar"
    REM COMPOSER ""
    INDEX 01 00:00:00
FILE "06 - You Stepped Out Of A Dream.wav" WAVE
  TRACK 06 AUDIO
    TITLE "You Stepped Out Of A Dream"
    PERFORMER "Bobby Jaspar"
    REM COMPOSER ""
    INDEX 01 00:00:00
FILE "07 - I Can't Get Started (With You).wav" WAVE
  TRACK 07 AUDIO
    TITLE "I Can't Get Started (With You)"
    PERFORMER "Bobby Jaspar"
    REM COMPOSER ""
    INDEX 01 00:00:00
FILE "08 - A Night In Tunisia.wav" WAVE
  TRACK 08 AUDIO
    TITLE "A Night In Tunisia"
    PERFORMER "Bobby Jaspar"
    REM COMPOSER ""
    INDEX 01 00:00:00
FILE "09 - Seven Up.wav" WAVE
  TRACK 09 AUDIO
    TITLE "Seven Up"
    PERFORMER "Bobby Jaspar"
    REM COMPOSER ""
    INDEX 01 00:00:00
FILE "10 - My Old Flame.wav" WAVE
  TRACK 10 AUDIO
    TITLE "My Old Flame"
    PERFORMER "Bobby Jaspar"
    REM COMPOSER ""
    INDEX 01 00:00:00
FILE "11 - All Of You.wav" WAVE
  TRACK 11 AUDIO
    TITLE "All Of You"
    PERFORMER "Bobby Jaspar"
    REM COMPOSER ""
    INDEX 01 00:00:00
FILE "12 - Doublemint.wav" WAVE
  TRACK 12 AUDIO
    TITLE "Doublemint"
    PERFORMER "Bobby Jaspar"
    REM COMPOSER ""
    INDEX 01 00:00:00
FILE "13 - Before Dawn.wav" WAVE
  TRACK 13 AUDIO
    TITLE "Before Dawn"
    PERFORMER "Bobby Jaspar"
    REM COMPOSER ""
    INDEX 01 00:00:00
FILE "14 - Sweet Blanche.wav" WAVE
  TRACK 14 AUDIO
    TITLE "Sweet Blanche"
    PERFORMER "Bobby Jaspar"
    REM COMPOSER ""
    INDEX 01 00:00:00
 
 
CD 2
Треклист:
01. Interplay (9:41)
02. Anatomy (11:54)
03. Light Blue (7:52)
04. Soul Eyes (17:31)
05. Scotch Hop (2:43)
06. Everything Happens to Me (4:11)
07. Competition (3:24)
08. Sacha, Bill et Bobby (3:50)
09. How About You (4:32)
10. Cheketah (6:05)
 
 
 
Лог создания рипа
Exact Audio Copy V1.3 from 2. September 2016
EAC extraction logfile from 18. July 2017, 23:13
Bobby Jaspar / Three Classic Albums Plus CD2
Used drive  : HL-DT-STDVD-RAM GH22NP21   Adapter: 1  ID: 0
Read mode               : Secure
Utilize accurate stream : Yes
Defeat audio cache      : Yes
Make use of C2 pointers : No
Read offset correction                      : 102
Overread into Lead-In and Lead-Out          : No
Fill up missing offset samples with silence : Yes
Delete leading and trailing silent blocks   : No
Null samples used in CRC calculations       : Yes
Used interface                              : Native Win32 interface for Win NT & 2000
Gap handling                                : Appended to previous track
Used output format              : User Defined Encoder
Selected bitrate                : 128 kBit/s
Quality                         : High
Add ID3 tag                     : No
Command line compressor         : C:\Program Files (x86)\Exact Audio Copy\Flac\flac.exe
Additional command line options : -8 -V -T "ARTIST=%artist%" -T "TITLE=%title%" -T "ALBUM=%albumtitle%" -T "DATE=%year%" -T "TRACKNUMBER=%tracknr%" -T "GENRE=%genre%" -T "PERFORMER=%albuminterpret%" -T "COMPOSER=%composer%" -T "ALBUMARTIST=%albumartist%" -T "DISCNUMBER=%cdnumber%" -T "TOTALDISCS=%totalcds%" -T "TOTALTRACKS=%numtracks%" -T "COMMENT=EAC Secure Mode, Test & Copy, AccurateRip, FLAC -8" %source% -o %dest%
TOC of the extracted CD
     Track |   Start  |  Length  | Start sector | End sector
    ---------------------------------------------------------
        1  |  0:00.00 |  9:40.39 |         0    |    43538
        2  |  9:40.39 | 11:54.19 |     43539    |    97107
        3  | 21:34.58 |  7:52.11 |     97108    |   132518
        4  | 29:26.69 | 17:31.23 |    132519    |   211366
        5  | 46:58.17 |  2:43.18 |    211367    |   223609
        6  | 49:41.35 |  4:10.69 |    223610    |   242428
        7  | 53:52.29 |  3:24.02 |    242429    |   257730
        8  | 57:16.31 |  3:49.55 |    257731    |   274960
        9  | 61:06.11 |  4:32.15 |    274961    |   295375
       10  | 65:38.26 |  6:05.00 |    295376    |   322750
Track  1
     Filename J:\DL\Bobby Jaspar - Three Classic Album Plus (2017) [FLAC]\CD2\01 - Interplay.wav
     Pre-gap length  0:00:02.00
     Peak level 90.4 %
     Extraction speed 2.0 X
     Track quality 100.0 %
     Test CRC 0B7A0FF1
     Copy CRC 0B7A0FF1
     Track not present in AccurateRip database
     Copy OK
Track  2
     Filename J:\DL\Bobby Jaspar - Three Classic Album Plus (2017) [FLAC]\CD2\02 - Anatomy.wav
     Peak level 96.9 %
     Extraction speed 2.5 X
     Track quality 100.0 %
     Test CRC BC255D21
     Copy CRC BC255D21
     Track not present in AccurateRip database
     Copy OK
Track  3
     Filename J:\DL\Bobby Jaspar - Three Classic Album Plus (2017) [FLAC]\CD2\03 - Light Blue.wav
     Pre-gap length  0:00:00.01
     Peak level 85.1 %
     Extraction speed 2.7 X
     Track quality 100.0 %
     Test CRC 1AADA10D
     Copy CRC 1AADA10D
     Track not present in AccurateRip database
     Copy OK
Track  4
     Filename J:\DL\Bobby Jaspar - Three Classic Album Plus (2017) [FLAC]\CD2\04 - Soul Eyes.wav
     Peak level 87.8 %
     Extraction speed 2.7 X
     Track quality 99.9 %
     Test CRC 92A04B32
     Copy CRC 92A04B32
     Track not present in AccurateRip database
     Copy OK
Track  5
     Filename J:\DL\Bobby Jaspar - Three Classic Album Plus (2017) [FLAC]\CD2\05 - Scotch Hop.wav
     Peak level 85.9 %
     Extraction speed 2.9 X
     Track quality 100.0 %
     Test CRC 280BE050
     Copy CRC 280BE050
     Track not present in AccurateRip database
     Copy OK
Track  6
     Filename J:\DL\Bobby Jaspar - Three Classic Album Plus (2017) [FLAC]\CD2\06 - Everything Happens to Me.wav
     Peak level 87.6 %
     Extraction speed 3.2 X
     Track quality 100.0 %
     Test CRC 658BB672
     Copy CRC 658BB672
     Track not present in AccurateRip database
     Copy OK
Track  7
     Filename J:\DL\Bobby Jaspar - Three Classic Album Plus (2017) [FLAC]\CD2\07 - Competition.wav
     Peak level 81.6 %
     Extraction speed 3.2 X
     Track quality 100.0 %
     Test CRC 12246D12
     Copy CRC 12246D12
     Track not present in AccurateRip database
     Copy OK
Track  8
     Filename J:\DL\Bobby Jaspar - Three Classic Album Plus (2017) [FLAC]\CD2\08 - Sacha, Bill et Bobby.wav
     Peak level 83.7 %
     Extraction speed 2.9 X
     Track quality 99.9 %
     Test CRC 0600CC14
     Copy CRC 0600CC14
     Track not present in AccurateRip database
     Copy OK
Track  9
     Filename J:\DL\Bobby Jaspar - Three Classic Album Plus (2017) [FLAC]\CD2\09 - How About You.wav
     Peak level 91.1 %
     Extraction speed 3.6 X
     Track quality 100.0 %
     Test CRC 627EC31A
     Copy CRC 627EC31A
     Track not present in AccurateRip database
     Copy OK
Track 10
     Filename J:\DL\Bobby Jaspar - Three Classic Album Plus (2017) [FLAC]\CD2\10 - Cheketah.wav
     Peak level 92.6 %
     Extraction speed 3.8 X
     Track quality 100.0 %
     Test CRC 1741E49E
     Copy CRC 1741E49E
     Track not present in AccurateRip database
     Copy OK
None of the tracks are present in the AccurateRip database
No errors occurred
End of status report
---- CUETools DB Plugin V2.1.6
[CTDB TOCID: v67J.Zyj8W6cZVyhoGo2eup0KTM-] disk not present in database
Submit result: v67J.Zyj8W6cZVyhoGo2eup0KTM- has been uploaded
==== Log checksum 696BC4CA02F07E006FC2F76AD410141D0699A776411B164202BAB67CB42C4701 ====
 
 
Содержание индексной карты (.CUE)
REM GENRE Jazz
REM DATE 2017
REM DISCID A010CF0A
REM COMMENT "ExactAudioCopy v1.3"
PERFORMER "Bobby Jaspar"
TITLE "Three Classic Albums Plus CD2"
REM COMPOSER ""
FILE "01 - Interplay.wav" WAVE
  TRACK 01 AUDIO
    TITLE "Interplay"
    PERFORMER "Bobby Jaspar"
    REM COMPOSER ""
    INDEX 01 00:00:00
FILE "02 - Anatomy.wav" WAVE
  TRACK 02 AUDIO
    TITLE "Anatomy"
    PERFORMER "Bobby Jaspar"
    REM COMPOSER ""
    INDEX 01 00:00:00
  TRACK 03 AUDIO
    TITLE "Light Blue"
    PERFORMER "Bobby Jaspar"
    REM COMPOSER ""
    INDEX 00 11:54:18
FILE "03 - Light Blue.wav" WAVE
    INDEX 01 00:00:00
FILE "04 - Soul Eyes.wav" WAVE
  TRACK 04 AUDIO
    TITLE "Soul Eyes"
    PERFORMER "Bobby Jaspar"
    REM COMPOSER ""
    INDEX 01 00:00:00
FILE "05 - Scotch Hop.wav" WAVE
  TRACK 05 AUDIO
    TITLE "Scotch Hop"
    PERFORMER "Bobby Jaspar"
    REM COMPOSER ""
    INDEX 01 00:00:00
FILE "06 - Everything Happens to Me.wav" WAVE
  TRACK 06 AUDIO
    TITLE "Everything Happens to Me"
    PERFORMER "Bobby Jaspar"
    REM COMPOSER ""
    INDEX 01 00:00:00
FILE "07 - Competition.wav" WAVE
  TRACK 07 AUDIO
    TITLE "Competition"
    PERFORMER "Bobby Jaspar"
    REM COMPOSER ""
    INDEX 01 00:00:00
FILE "08 - Sacha, Bill et Bobby.wav" WAVE
  TRACK 08 AUDIO
    TITLE "Sacha, Bill et Bobby"
    PERFORMER "Bobby Jaspar"
    REM COMPOSER ""
    INDEX 01 00:00:00
FILE "09 - How About You.wav" WAVE
  TRACK 09 AUDIO
    TITLE "How About You"
    PERFORMER "Bobby Jaspar"
    REM COMPOSER ""
    INDEX 01 00:00:00
FILE "10 - Cheketah.wav" WAVE
  TRACK 10 AUDIO
    TITLE "Cheketah"
    PERFORMER "Bobby Jaspar"
    REM COMPOSER ""
    INDEX 01 00:00:00

 
 
Об альбоме (сборнике)
AVID Jazz continues with its Four Classic album series with a re-mastered 2CD release from Bobby Jaspar, complete with original artwork and liner notes. 'Bobby Jaspar All Stars'; 'Tenor & Flute'; 'Interplay for 2 Trumpets and 2 Tenors' plus the .E.P. 'Bobby Jaspar & Sacha Distel' and two tracks from Chet Baker 'I Got Chet'. Don't be fooled into thinking tenor saxophonist and flautist Bobby Jaspar was in the second league of jazz because he was born in Liege, Belgium! Don't forget this is the country that gave us Jacques Brel, Poirot and Tin Tin! And if you still don't believe us just take a look at some of the musicians playing alongside Bobby on our four fine selections: John Coltrane, Chet Baker, Elvin Jones, Mal Waldron, Kenny Burrell, Paul Chambers, Art Taylor, George Wallington and Sacha Distel (don't panic, he's playing superb jazz guitar, not singing!) And if these albums impress you, watch out for another couple of Bobby Jaspar performances on our forthcoming second Herbie Mann release.
----
Retrouvez les 3 Albums suivants + Bonus Tracks : Bobby Jaspar All Stars / Tenor & Flute / Interplay For 2 Trumpets & 2 Tenors / AVID Jazz continue avec sa série d'albums "Four Classic" 2 CDs remasterisés de Bobby Jaspar, avec des illustrations originales et un livret. "Bobby Jaspar All Stars"; "Ténor & Flûte"; "Intermède pour 2 Trompettes et 2 Ténors" plus le .E.P. "Bobby Jaspar & Sacha Distel" et deux titres de Chet Baker "I Got Chet". Ne vous laissez pas berner par l'idée que le saxophoniste et du flûtiste Bobby Jaspar jouait dans la deuxième ligue du jazz parce qu'il est né à Liège, en Belgique ! N'oubliez pas que c'est le pays qui nous a donné Jacques Brel, H.Poirot et Tintin ! Et si vous ne nous croyez toujours pas, allez jeter un oeil sur certains des musiciens qui jouent aux côtés de Bobby sur nos quatre album sélectionnés : John Coltrane, Chet Baker, Elvin Jones, Mal Waldron, Kenny Burrell, Paul Chambers, Art Taylor, George Wallington et Sacha Distel (ne paniquez pas, il joue de la guitare jazz superbement, et ne chante pas !). Et si ces albums vous impressionnent, faites attention aux deux autres interprétations de Bobby Jaspar sur notre prochaine sortie Herbie Mann.
Download available for power users only.
20:05
374
Нет комментариев. Ваш будет первым!