Вы используете незарегистрированную версию компонента "Вкладки"!

Поиск

(Cool) John Lewis, Albert Mangelsdorff, The Zagreb Jazz Quartet - Animal Dance - 1962 (2013 Japan Edition), FLAC (image+.cue), lossless

(Cool) John Lewis, Albert Mangelsdorff, The Zagreb Jazz Quartet - Animal Dance - 1962 (2013 Japan Edition), FLAC (image+.cue), lossless
Треклист:
John Lewis, Albert Mangelsdorff, The Zagreb Jazz Quartet - Animal Dance
Жанр: Cool
Страна-производитель диска: Япония
Год издания: 2013
Издатель (лейбл): Atlantic/WEA/Warner
Номер по каталогу: WPCR-27209
Страна: США
Аудиокодек: FLAC (*.flac)
Тип рипа: image+.cue
Битрейт аудио: lossless
Продолжительность: 35:32
Источник (релизер): диск из моей коллекции
Наличие сканов в содержимом раздачи: да
Треклист:
01. Animal Dance (Lewis) - 2:44
02. Autumn Leaves (Kosma-Prevert) - 6:45
03. Set 'Em Up (Mangelsdorff) - 3:22
04. Monday in Milan (Lewis) - 5:30
05. The Sheriff (Lewis) - 3:58
06. Why Are You Blue (McFarland) - 6:35
07. Ornaments (Kajfes) - 6:38
Состав:
#1-6:
John Lewis - piano (#1,3-6)
Albert Mangelsdorff - trombone
Karl Theodor Geier - bass
Silvije Glojnaric - drums
#7:
The Zagreb Jazz Quartet:
Davor Kajfes - piano
Bosko Petrovic - vibraharp
Miljenko Prohaska - bass
Silvije Glojnaric - drums
Recorded in Baden-Baden, Germany on July 30, 1962.
 
Лог создания рипа
Exact Audio Copy V1.0 beta 3 from 29. August 2011
EAC extraction logfile from 18. October 2013, 16:07
John Lewis, Albert Mangelsdorff, The Zagreb Jazz Quartet / Animal Dance
Used drive : ASUS DRW-24B1LT Adapter: 5 ID: 1
Read mode : Secure
Utilize accurate stream : Yes
Defeat audio cache : Yes
Make use of C2 pointers : No
Read offset correction : 6
Overread into Lead-In and Lead-Out : No
Fill up missing offset samples with silence : Yes
Delete leading and trailing silent blocks : No
Null samples used in CRC calculations : Yes
Used interface : Native Win32 interface for Win NT & 2000
Used output format : User Defined Encoder
Selected bitrate : 768 kBit/s
Quality : High
Add ID3 tag : No
Command line compressor : C:\Program Files\Exact Audio Copy\Flac\flac.exe
Additional command line options : -8 -V -T "ARTIST=%artist%" -T "TITLE=%title%" -T "ALBUM=%albumtitle%" -T "DATE=%year%" -T "TRACKNUMBER=%tracknr%" -T "TOTALTRACKS=%numtracks%" -T "GENRE=%genre%" -T "ALBUMARTIST=%albumartist%" -T "ALBUM ARTIST=%albumartist%" -T "COMMENT=EAC Secure Mode, Test & Copy, AccurateRip, FLAC -8" %source%
TOC of the extracted CD
Track | Start | Length | Start sector | End sector
---------------------------------------------------------
1 | 0:00.00 | 2:43.68 | 0 | 12292
2 | 2:43.68 | 6:45.31 | 12293 | 42698
3 | 9:29.24 | 3:22.35 | 42699 | 57883
4 | 12:51.59 | 5:29.74 | 57884 | 82632
5 | 18:21.58 | 3:58.14 | 82633 | 100496
6 | 22:19.72 | 6:34.59 | 100497 | 130105
7 | 28:54.56 | 6:37.56 | 130106 | 159936
Range status and errors
Selected range
Filename F:\audio\John Lewis, Albert Mangelsdorff, The Zagreb Jazz Quartet - Animal Dance.wav
Peak level 100.0 %
Extraction speed 5.1 X
Range quality 100.0 %
Test CRC 8FE3C4CE
Copy CRC 8FE3C4CE
Copy OK
No errors occurred
AccurateRip summary
Track 1 accurately ripped (confidence 1) [679C5E45] (AR v2)
Track 2 accurately ripped (confidence 1) [CF7AD298] (AR v2)
Track 3 accurately ripped (confidence 1) [B1095E10] (AR v2)
Track 4 accurately ripped (confidence 1) [182D544D] (AR v2)
Track 5 accurately ripped (confidence 1) [5D22FDD8] (AR v2)
Track 6 accurately ripped (confidence 1) [8613C1A8] (AR v2)
Track 7 accurately ripped (confidence 1) [4F5A83A1] (AR v2)
All tracks accurately ripped
End of status report
---- CUETools DB Plugin V2.1.3
[CTDB TOCID: jaVMFjw3fWFb7lu0Ic_rq6aOKhg-] disk not present in database, Submit result: jaVMFjw3fWFb7lu0Ic_rq6aOKhg- has been uploaded
==== Log checksum 73D74C800A6B336978B1CA903610D1C52F769A0CFF2749C6CA0776BD9E335F09 ====
 
Содержание индексной карты (.CUE)
REM GENRE Jazz
REM DATE 1962
REM DISCID 4B085407
REM COMMENT "ExactAudioCopy v1.0b3"
PERFORMER "John Lewis, Albert Mangelsdorff, The Zagreb Jazz Quartet"
TITLE "Animal Dance"
FILE "John Lewis, Albert Mangelsdorff, The Zagreb Jazz Quartet - Animal Dance.wav" WAVE
TRACK 01 AUDIO
TITLE "Animal Dance"
PERFORMER "John Lewis, Albert Mangelsdorff, The Zagreb Jazz Quartet"
INDEX 01 00:00:00
TRACK 02 AUDIO
TITLE "Autumn Leaves"
PERFORMER "John Lewis, Albert Mangelsdorff, The Zagreb Jazz Quartet"
INDEX 00 02:42:71
INDEX 01 02:43:68
TRACK 03 AUDIO
TITLE "Set 'Em Up"
PERFORMER "John Lewis, Albert Mangelsdorff, The Zagreb Jazz Quartet"
INDEX 00 09:28:30
INDEX 01 09:29:24
TRACK 04 AUDIO
TITLE "Monday in Milan"
PERFORMER "John Lewis, Albert Mangelsdorff, The Zagreb Jazz Quartet"
INDEX 00 12:49:59
INDEX 01 12:51:59
TRACK 05 AUDIO
TITLE "The Sheriff"
PERFORMER "John Lewis, Albert Mangelsdorff, The Zagreb Jazz Quartet"
INDEX 00 18:19:22
INDEX 01 18:21:58
TRACK 06 AUDIO
TITLE "Why Are You Blue"
PERFORMER "John Lewis, Albert Mangelsdorff, The Zagreb Jazz Quartet"
INDEX 00 22:18:30
INDEX 01 22:19:72
TRACK 07 AUDIO
TITLE "Ornaments"
PERFORMER "John Lewis, Albert Mangelsdorff, The Zagreb Jazz Quartet"
INDEX 00 28:53:08
INDEX 01 28:54:56
 
Отчет CUETools
[CUETools log; Date: 18.10.2013 16:08:57; Version: 2.1.4]
[CTDB TOCID: jaVMFjw3fWFb7lu0Ic_rq6aOKhg-] found.
Track | CTDB Status
1 | (1/1) Accurately ripped
2 | (1/1) Accurately ripped
3 | (1/1) Accurately ripped
4 | (1/1) Accurately ripped
5 | (1/1) Accurately ripped
6 | (1/1) Accurately ripped
7 | (1/1) Accurately ripped
[AccurateRip ID: 0008f141-0036c9cd-4b085407] found.
Track [ CRC | V2 ] Status
01 [84fb3516|679c5e45] (0+1/1) Accurately ripped
02 [98a03bdc|cf7ad298] (0+1/1) Accurately ripped
03 [5c47dcac|b1095e10] (0+1/1) Accurately ripped
04 [284ab349|182d544d] (0+1/1) Accurately ripped
05 [2e64f5e9|5d22fdd8] (0+1/1) Accurately ripped
06 [6c054e3e|8613c1a8] (0+1/1) Accurately ripped
07 [3227d94e|4f5a83a1] (0+1/1) Accurately ripped
Track Peak [ CRC32 ] [W/O NULL] [ LOG ]
-- 100,0 [8FE3C4CE] [8FA1BB42] CRC32
01 100,0 [0F4C1F21] [6D43790B]
02 100,0 [18BC586A] [91FDD7AD]
03 100,0 [52D0B82A] [3E73AC6D]
04 100,0 [37A0C2A8] [59E4C830]
05 100,0 [2A015518] [509CD037]
06 100,0 [2F9FB205] [DA442A62]
07 100,0 [980AECE6] [BEF54E5E]
 
Review by Ken Dryden
This studio date came about as a result of Albert Mangelsdorff's appearance at the Third Yugoslavian Jazz Festival, where pianist John Lewis was impressed enough with his performance to set up a recording session a few days later. With bassist Karl Theodor Geier and drummer Silvije Glojnaric also on hand, none of the musicians had ever played together, though it made little difference as they quickly absorbed the originals of Lewis and Mangelsdorff, along with the familiar standard "Autumn Leaves" (a trio arrangement omitting Lewis) and Gary McFarland's "Why Are You Blue." The leader's judgment is validated with Mangelsdorff's impressive work. The final track showcases a separate group, the Zagreb Jazz Quartet, featuring pianist Davor Kajfes, vibraphonist Bosko Petrovic, bassist Miljenko Prohaska and Glojnaric on drums. Long out of print, this Atlantic LP will be somewhat hard to find.
Any questions - support@pro-jazz.com. Есть вопросы - support@pro-jazz.com
08:09
266
Нет комментариев. Ваш будет первым!