Поиск

(Cool Jazz / Samba) Stan Getz & Charlie Byrd - Jazz Samba (ArsNova 99-0433) - 1962, APE (image+.cue), lossless

Треклист:
Stan Getz & Charlie Byrd - Jazz Samba (ArsNova 99-0433)
Жанр: Cool Jazz / Samba
Год выпуска диска: 1962
Производитель диска: Россия
Аудио кодек: APE
Тип рипа: image+.cue
Битрейт аудио: lossless
Продолжительность: 33:27
Трэклист:
01 Desafinado 5:53
02 Samba Dees Days 3:37
03 O Pato 2:34
04 Samba Triste 4:48
05 Samba De Uma Nota So 6:13
06 E Luxo So 3:43
07 Baia 6:40
Доп. информация:
 
Log EAC
Exact Audio Copy V0.99 prebeta 5 from 4. May 2009
EAC extraction logfile from 21. April 2010, 8:22
Stan Getz & Charlie Byrd / Jazz Samba
Used drive : Optiarc DVD RW AD-7200A Adapter: 0 ID: 1
Read mode : Secure
Utilize accurate stream : Yes
Defeat audio cache : Yes
Make use of C2 pointers : No
Read offset correction : 48
Overread into Lead-In and Lead-Out : No
Fill up missing offset samples with silence : Yes
Delete leading and trailing silent blocks : No
Null samples used in CRC calculations : Yes
Used interface : Native Win32 interface for Win NT & 2000
Used output format : Internal WAV Routines
Sample format : 44.100 Hz; 16 Bit; Stereo
TOC of the extracted CD
Track | Start | Length | Start sector | End sector
---------------------------------------------------------
1 | 0:00.33 | 5:52.42 | 33 | 26474
2 | 5:53.00 | 3:36.65 | 26475 | 42739
3 | 9:29.65 | 2:34.05 | 42740 | 54294
4 | 12:03.70 | 4:47.60 | 54295 | 75879
5 | 16:51.55 | 6:12.40 | 75880 | 103819
6 | 23:04.20 | 3:43.13 | 103820 | 120557
7 | 26:47.33 | 6:40.00 | 120558 | 150557
Range status and errors
Selected range
Filename I:\LOSSLESS\Stan Getz & Charlie Byrd - Jazz Samba.wav
Peak level 96.5 %
Range quality 100.0 %
Test CRC E9A15029
Copy CRC E9A15029
Copy OK
No errors occurred
AccurateRip summary
Track 1 cannot be verified as accurate (confidence 18) [D81216BA], AccurateRip returned [A94D6BE6]
Track 2 cannot be verified as accurate (confidence 17) [1E3BD5E7], AccurateRip returned [11F9F217]
Track 3 cannot be verified as accurate (confidence 17) [CC2C7637], AccurateRip returned [EC7048D1]
Track 4 cannot be verified as accurate (confidence 17) [4B274832], AccurateRip returned [8F407A0C]
Track 5 cannot be verified as accurate (confidence 16) [5D0BB2A1], AccurateRip returned [32D93ABF]
Track 6 cannot be verified as accurate (confidence 15) [9EE2378A], AccurateRip returned [698B7789]
Track 7 cannot be verified as accurate (confidence 16) [C5A99280], AccurateRip returned [33EB2987]
No tracks could be verified as accurate
You may have a different pressing from the one(s) in the database
End of status report
14:14
279
Нет комментариев. Ваш будет первым!