Поиск

(Continental Jazz, World Fusion, Tzadik) Daphna Sadeh & The Voyagers - Reconciliation - 2009, FLAC (tracks+.cue), lossless

(Continental Jazz, World Fusion, Tzadik) Daphna Sadeh & The Voyagers - Reconciliation - 2009, FLAC (tracks+.cue), lossless
Треклист:
Daphna Sadeh & The Voyagers - Reconciliation
Жанр: Continental Jazz, World Fusion, Tzadik
Год выпуска диска: 2009
Производитель диска: US (Tzadik)
Аудио кодек: FLAC
Тип рипа: tracks+.cue
Битрейт аудио: lossless
Продолжительность: 46:47
Трэклист:
1. Queen of Sheba
2. Gulliver in Jerusalem
3. Avinu
4. What Else is There
5. Reconciliation
6. Klil
7. Kadish
8. Eternal Mother
Daphna Sadeh: Double Bass
Mark Bassey: Trombone
Stewart Curtis: Clarinets, Flute, Descant And Treble Recorders
Ivor Goldberg: Acoustic Guitar, Classical Guitar, 12-string Guitar, Electric Guitar, Mandolin, Voice
Eddie Hession: Accordion
Ronan Kozokaro: Drums, Darbuka, Frame Drum, Riq
Доп. информация:
 
EAC log
Exact Audio Copy V0.99 prebeta 4 from 23. January 2008
EAC extraction logfile from 1. April 2009, 18:56
Daphna Sadeh & The Voyagers / Reconciliation
Used drive : Optiarc DVD RW AD-7530B Adapter: 0 ID: 0
Read mode : Secure
Utilize accurate stream : Yes
Defeat audio cache : Yes
Make use of C2 pointers : No
Read offset correction : 6
Overread into Lead-In and Lead-Out : No
Fill up missing offset samples with silence : Yes
Delete leading and trailing silent blocks : No
Null samples used in CRC calculations : Yes
Used interface : Native Win32 interface for Win NT & 2000
Gap handling : Appended to previous track
Used output format : User Defined Encoder
Selected bitrate : 768 kBit/s
Quality : High
Add ID3 tag : No
Command line compressor : C:\Program Files\Exact Audio Copy\FLAC\FLAC.EXE
Additional command line options : -6 -V -T "ARTIST=%a" -T "TITLE=%t" -T "ALBUM=%g" -T "DATE=%y" -T "TRACKNUMBER=%n" -T "GENRE=%m" -T "COMMENT=%e" %s -o %d
TOC of the extracted CD
Track | Start | Length | Start sector | End sector
---------------------------------------------------------
1 | 0:00.00 | 6:39.51 | 0 | 29975
2 | 6:39.51 | 6:52.16 | 29976 | 60891
3 | 13:31.67 | 6:11.02 | 60892 | 88718
4 | 19:42.69 | 5:02.16 | 88719 | 111384
5 | 24:45.10 | 5:05.72 | 111385 | 134331
6 | 29:51.07 | 6:35.28 | 134332 | 163984
7 | 36:26.35 | 5:37.08 | 163985 | 189267
8 | 42:03.43 | 4:43.29 | 189268 | 210521
Track 1
Filename C:\Users\Rasmus\Documents\What\Daphna Sadeh & The Voyagers (2009) - Reconciliation [FLAC]\01 - Queen of Sheeba.wav
Pre-gap length 0:00:02.00
Peak level 97.7 %
Track quality 100.0 %
Test CRC 0BB030D5
Copy CRC 0BB030D5
Track not present in AccurateRip database
Copy OK
Track 2
Filename C:\Users\Rasmus\Documents\What\Daphna Sadeh & The Voyagers (2009) - Reconciliation [FLAC]\02 - Gulliver in Jerusalem.wav
Pre-gap length 0:00:03.12
Peak level 94.4 %
Track quality 100.0 %
Test CRC 46677BB7
Copy CRC 46677BB7
Track not present in AccurateRip database
Copy OK
Track 3
Filename C:\Users\Rasmus\Documents\What\Daphna Sadeh & The Voyagers (2009) - Reconciliation [FLAC]\03 - Avinu.wav
Pre-gap length 0:00:01.12
Peak level 97.1 %
Track quality 100.0 %
Test CRC 5DD40812
Copy CRC 5DD40812
Track not present in AccurateRip database
Copy OK
Track 4
Filename C:\Users\Rasmus\Documents\What\Daphna Sadeh & The Voyagers (2009) - Reconciliation [FLAC]\04 - What Else is There.wav
Peak level 94.4 %
Track quality 100.0 %
Test CRC 996C776F
Copy CRC 996C776F
Track not present in AccurateRip database
Copy OK
Track 5
Filename C:\Users\Rasmus\Documents\What\Daphna Sadeh & The Voyagers (2009) - Reconciliation [FLAC]\05 - Reconciliation.wav
Pre-gap length 0:00:01.23
Peak level 97.7 %
Track quality 100.0 %
Test CRC F0428B14
Copy CRC F0428B14
Track not present in AccurateRip database
Copy OK
Track 6
Filename C:\Users\Rasmus\Documents\What\Daphna Sadeh & The Voyagers (2009) - Reconciliation [FLAC]\06 - Klil.wav
Peak level 97.7 %
Track quality 100.0 %
Test CRC 2D4F0463
Copy CRC 2D4F0463
Track not present in AccurateRip database
Copy OK
Track 7
Filename C:\Users\Rasmus\Documents\What\Daphna Sadeh & The Voyagers (2009) - Reconciliation [FLAC]\07 - Kadish.wav
Peak level 94.4 %
Track quality 100.0 %
Test CRC 3B7C3F77
Copy CRC 3B7C3F77
Track not present in AccurateRip database
Copy OK
Track 8
Filename C:\Users\Rasmus\Documents\What\Daphna Sadeh & The Voyagers (2009) - Reconciliation [FLAC]\08 - Eternal Mother.wav
Peak level 97.7 %
Track quality 100.0 %
Test CRC 06ACE516
Copy CRC 06ACE516
Track not present in AccurateRip database
Copy OK
None of the tracks are present in the AccurateRip database
No errors occurred
End of status report
 
Tzadik
To composer/bassist Daphna Sadeh, Jewish Music is the cross-cultural patchwork quilt of the diaspora experience. Born in Israel, she has studied in New York and since 2002 has been based mostly in London where she leads her own ensemble and performs with a variety of fabulous musicians. Her first contribution to the Radical Jewish Culture series is a brilliant and hypnotic mix of Jazz, Western Classical, Middle Eastern/Arabic Taqsim and Jewish music from the Sephardi/Ashkenazi tradition, reflecting her eclectic life experiences. Seductive and powerful music from this sensitive Israeli globe trotter.
По всем вопросам пишите личное сообщение пользователю M0p94ok.
05:34
275
Нет комментариев. Ваш будет первым!