Поиск

(Continental Jazz , Violin) Michel Legrand, Stephane Grappelli - Stephane Grappelli & Michel Legrand - 1992, APE (image+.cue), lossless

Треклист:
Michel Legrand, Stephane Grappelli
Жанр: Continental Jazz , Violin
Год выпуска диска: 1992
Производитель диска: PolyGram, France
Аудио кодек: APE
Тип рипа: image+.cue
Битрейт аудио: lossless
Продолжительность: 70:54
Трэклист:
1. Parlez-moi d'amour (Speak to Me of Love) - 4:54
2. C'est si bon - 4:02
3. Les feuilles mortes (Autumn Leaves) - 3:39
4. Theme From Summer of '42 (The Summer Knows/Un été 42) - 5:17
5. Revoir Paris - 4:41
6. Mon légionnaire - 6:36
7. The Good Life (La belle vie) - 5:39
8. Clopin-clopant (Comme ci, comme ça) - 3:37
9. Mon homme (My Man) - 3:55
10. What Are You Doing The Rest of Your Life? - 5:57
11. Insensiblement - 4:55
12. Les parapluies de Cherbourg (I Will Wait For You) - 3:51
13. Milou en mai (rivière) - 3:18
14. Irma la douce - 4:01
15. Nuages - 5:34
Michel Legrand – piano, arrangements & direction
Stephane Grappelli – violin
 
The Orchestra, Rhythm Section, Brass & Chorus
STRINGS: Concertmaster – Bertrand Cervera
violins: F.Arnaud, M.-H.Beridot, Y.Bisquay, K.Brunon, N.Carlucci, C.Chevauché, V.de Nattes, M.Dietz, L.Dupuis, G.Fontanarosa, P.Gates, S.Goloboff, S.Granjon, S.Henoch, D.Juchors, M.-A. Le Bars, S.Moyal, C.Pierre, C.Planes, N.Saint-Arroman
violas: J.-M.Apap, Ch.Briquet, Ch.Jaboulay, L.Jaboulay, O.Kaspar, P.Lenert
celli: L.Allalah, J.-C.Aucli, A.-S.Boissenin, N.Caron, F.Kret, E.Petit, F.Petit, I.Sajot
double basses: D.Marillier, Ph.Noharet
RHYTHM SECTION:
electric double bass: M.-M.Lebevillon
drums: A.Ceccarelli
BRASS:
trumpets: J.Faddis, K.Bessot, T.Russo, S.Belmondo, P.Dutour
trombones: D.Leloup, J.Bolognesi, Ch.Guizien
bass trombone: M.Cevrero
CHORUS: V.Barouille, F.Walle, C.Chauvet, M.Barouille, P.Schreider, J.-C.Briodin
recorded: 1992
 
Отчёт EAC
Exact Audio Copy V0.99 prebeta 4 from 23. January 2008
EAC extraction logfile from 14. November 2009, 22:27
Michel Legrand - Stéphane Grappelli / Legrand, Grappelli
Used drive : _NEC DVD_RW ND-2510A Adapter: 1 ID: 1
Read mode : Secure
Utilize accurate stream : Yes
Defeat audio cache : Yes
Make use of C2 pointers : No
Read offset correction : 48
Overread into Lead-In and Lead-Out : No
Fill up missing offset samples with silence : Yes
Delete leading and trailing silent blocks : No
Null samples used in CRC calculations : Yes
Used interface : Native Win32 interface for Win NT & 2000
Used output format : Internal WAV Routines
Sample format : 44.100 Hz; 16 Bit; Stereo
TOC of the extracted CD
Track | Start | Length | Start sector | End sector
---------------------------------------------------------
1 | 0:00.32 | 4:58.50 | 32 | 22431
2 | 4:59.07 | 4:05.73 | 22432 | 40879
3 | 9:05.05 | 3:43.20 | 40880 | 57624
4 | 12:48.25 | 5:21.45 | 57625 | 81744
5 | 18:09.70 | 4:44.62 | 81745 | 103106
6 | 22:54.57 | 6:40.30 | 103107 | 133136
7 | 29:35.12 | 5:43.60 | 133137 | 158921
8 | 35:18.72 | 3:41.20 | 158922 | 175516
9 | 39:00.17 | 4:00.03 | 175517 | 193519
10 | 43:00.20 | 6:00.05 | 193520 | 220524
11 | 49:00.25 | 4:59.20 | 220525 | 242969
12 | 53:59.45 | 3:55.05 | 242970 | 260599
13 | 57:54.50 | 3:22.67 | 260600 | 275816
14 | 61:17.42 | 4:04.68 | 275817 | 294184
15 | 65:22.35 | 5:31.50 | 294185 | 319059
Range status and errors
Selected range
Filename C:\Documents and Settings\IGOR\Bureau\Michel Legrand - Stéphane Grappelli - Legrand, Grappelli.wav
Peak level 100.0 %
Range quality 100.0 %
Copy CRC 95FCE761
Copy OK
No errors occurred
AccurateRip summary
Track 1 not present in database
Track 2 not present in database
Track 3 not present in database
Track 4 not present in database
Track 5 not present in database
Track 6 not present in database
Track 7 not present in database
Track 8 not present in database
Track 9 not present in database
Track 10 not present in database
Track 11 not present in database
Track 12 not present in database
Track 13 not present in database
Track 14 not present in database
Track 15 not present in database
None of the tracks are present in the AccurateRip database
End of status report
По всем вопросам пишите личное сообщение пользователю M0p94ok.
15:08
413
Нет комментариев. Ваш будет первым!