Вы используете незарегистрированную версию компонента "Вкладки"!

Поиск

(Conterporary Jazz Avant-Prog) John Zorn - Spillane - 1987, APE (image+.cue), lossless

(Conterporary Jazz Avant-Prog) John Zorn - Spillane - 1987, APE (image+.cue), lossless
Треклист:
John Zorn - Spillane
Жанр: Conterporary Jazz Avant-Prog
Год выпуска диска: 1987
Производитель диска: USA
Аудио кодек: APE
Тип рипа: image+.cue
Битрейт аудио: lossless
Продолжительность: 53:57
Трэклист:
1. Spillane (25:17)
2. Two-Lane Highway: Preacher Man/White Line Fever/Nacogdoches Gumbo/East Texas Freezeout/San Angelo Release/Rollin' To Killeen/Blowout/Devil's Highway/Midnight Standoff/Marchin' For Abilene (13:31)
3. Two-Lane Highway: Hico Killer/Long Mile To Houston (4:50)
4. Forbidden Fruit (10:19)
Доп. информация: Line-up/Musicians
On track 1:
- Anthony Coleman / piano, organ, celeste
- Carol Emanuel / harp
- Bill Frisell / guitar
- David Hofstra / bass, tuba
- Bob James / tapes, compact discs
- Bobby Previte / drums, percussion
- Jim Staley / trombone
- David Weinstein / sampling keyboards, celeste
- John Zorn / alto saxophone, clarinet
- John Lurie / voice
- Robert Quine / voice.
On tracks 2-3:
- Albert Collins / guitar, voice
- Robert Quine / guitar
- Big John Patton / organ
- Wayne Horvitz / piano, keyboards
- Melvin Gibbs / bass
- Ronald Shannon Jackson / drums
- Bobby Previte / drums, percussion
On track 4:
The Kronos Quartet:
- David Harrington / violin
- John Sherba / violin
- Hank Dutt / viola
- Joan Jeanrenaud / cello
With:
- Christian Marclay / turntables
- Ohta Hiromi / voice
 
Отчёт EAC
Exact Audio Copy V0.99 prebeta 4 from 23. January 2008
Отчёт EAC об извлечении, выполненном 17. февраля 2009, 10:11
John Zorn / Spillane
Дисковод: _NEC DVD_RW ND-3550A Adapter: 1 ID: 0
Режим чтения : Достоверность
Использование точного потока : Да
Отключение кэша аудио : Да
Использование указателей C2 : Нет
Коррекция смещения при чтении : 48
Способность читать области Lead-in и Lead-out : Нет
Заполнение пропущенных сэмплов тишиной : Да
Удаление блоков с тишиной в начале и конце : Нет
При вычислениях CRC использовались нулевые сэмплы : Да
Интерфейс : Встроенный Win32-интерфейс для Win NT/2000
Выходной формат : Внутренние WAV-операции
Формат сэмплов : 44.100 Гц; 16 бит; стерео
TOC извлечённого CD
Трек | Старт | Длительность | Начальный сектор | Конечный сектор
---------------------------------------------------------------------
1 | 0:00.33 | 25:17.10 | 33 | 113817
2 | 25:17.43 | 13:31.70 | 113818 | 174712
3 | 38:49.38 | 4:50.32 | 174713 | 196494
4 | 43:39.70 | 10:19.58 | 196495 | 242977
Характеристики диапазона извлечения и сообщения об ошибках
Выбранный диапазон
Имя файла E:\001-torrent\John Zorn - Spillane\John Zorn - Spillane.wav
Пиковый уровень 99.6 %
Качество диапазона 100.0 %
CRC копии EB0AE871
Копирование... OK
Ошибок не произошло
Конец отчёта
 
спектр
Рип мой с родного диска, сканы внутри.
Any questions -> support@pro-jazz.com. По всем вопросам пишите -> support@pro-jazz.com
08:15
170
Нет комментариев. Ваш будет первым!