Поиск

(Contemporary, Spiritual, Jewish, Tzadik) Greg Wall's Later Prophets - Ha'Orot (The Kook Project) - 2009, APE (image+.cue) lossless

Треклист:
Greg Wall's Later Prophets / Ha'Orot (The Kook Project)

Жанр: Contemporary, Spiritual, Jewish, Tzadik
Страна-производитель диска: USA
Год издания диска: 2009
Издатель (лейбл): Tzadik (Radical Jewish Culture)
Номер по каталогу: TZ8137
Страна: USA
Аудио кодек: APE (*.ape)
Тип рипа: image+.cue
Битрейт аудио: lossless
Продолжительность: ~ 67 min
Источник (релизер): родной рип
Наличие сканов в содержимом раздачи: да
Треклист:
~Ha'Orot~
1 Ha'tzofeh Le'tovah [The One Who Seeks the Good]
2 Techiya [Renewal]
3 Me'olam Rachok [From a Distant World]
4 Hootzeuni Leervaya [Take Me out to the Overflowing]
5 Nigun Ha'rav #1 [Rav Kook's Melody]
6 Shofar Wall
7 Shuva Ruchi [Return My Spirit]
8 Nigun Ha'rav #2 [Rav Kook's Melody]
9 Lachashei Ha'havaya [The Whispers of Existence]
10 Ma'aynei Ruchi [The Wellsprings of My Spirit]
11 Dror [Freedom]
12 Anee Maleh Ahava Le'elohim [I Am Filled with Love for G-d]
13 Sheer Merooba [The Four Fold Song]
14 Ha'tzofeh Le'tovah [Hebrew Version]
 
EAC log
Exact Audio Copy V0.99 prebeta 5 from 4. May 2009
EAC extraction logfile from 24. March 2011, 0:05
Greg Wall's Later Prophets / Ha'Orot
Used drive : HL-DT-STDVD-RAM GH22NP20 Adapter: 0 ID: 0
Read mode : Secure
Utilize accurate stream : Yes
Defeat audio cache : Yes
Make use of C2 pointers : No
Read offset correction : 102
Overread into Lead-In and Lead-Out : No
Fill up missing offset samples with silence : Yes
Delete leading and trailing silent blocks : No
Null samples used in CRC calculations : Yes
Used interface : Native Win32 interface for Win NT & 2000
Used output format : Internal WAV Routines
Sample format : 44.100 Hz; 16 Bit; Stereo
TOC of the extracted CD
Track | Start | Length | Start sector | End sector
---------------------------------------------------------
1 | 0:00.00 | 3:41.61 | 0 | 16635
2 | 3:41.61 | 7:39.24 | 16636 | 51084
3 | 11:21.10 | 9:31.66 | 51085 | 93975
4 | 20:53.01 | 4:00.42 | 93976 | 112017
5 | 24:53.43 | 6:06.12 | 112018 | 139479
6 | 30:59.55 | 2:03.63 | 139480 | 148767
7 | 33:03.43 | 2:38.10 | 148768 | 160627
8 | 35:41.53 | 3:19.04 | 160628 | 175556
9 | 39:00.57 | 6:00.51 | 175557 | 202607
10 | 45:01.33 | 1:31.74 | 202608 | 209506
11 | 46:33.32 | 3:11.46 | 209507 | 223877
12 | 49:45.03 | 5:31.01 | 223878 | 248703
13 | 55:16.04 | 7:48.44 | 248704 | 283847
14 | 63:04.48 | 3:42.65 | 283848 | 300562
Range status and errors
Selected range
Filename C:\Greg Wall's Later Prophets (2009) Ha'Orot\Greg Wall's Later Prophets - Ha'Orot.wav
Peak level 96.6 %
Range quality 100.0 %
Test CRC 769CB757
Copy CRC 769CB757
Copy OK
No errors occurred
AccurateRip summary
Track 1 not present in database
Track 2 not present in database
Track 3 not present in database
Track 4 not present in database
Track 5 not present in database
Track 6 not present in database
Track 7 not present in database
Track 8 not present in database
Track 9 not present in database
Track 10 not present in database
Track 11 not present in database
Track 12 not present in database
Track 13 not present in database
Track 14 not present in database
None of the tracks are present in the AccurateRip database
End of status report
 
.CUE
REM GENRE Jazz
REM DATE 2009
REM DISCID DA0FA70E
REM COMMENT "ExactAudioCopy v0.99pb5"
PERFORMER "Greg Wall's Later Prophets"
TITLE "Ha'Orot"
FILE "Greg Wall's Later Prophets - Ha'Orot.wav" WAVE
TRACK 01 AUDIO
TITLE "Ha'Tzofeh Le'Tovah"
PERFORMER "Greg Wall's Later Prophets"
INDEX 01 00:00:00
TRACK 02 AUDIO
TITLE "Techiya"
PERFORMER "Greg Wall's Later Prophets"
INDEX 01 03:41:61
TRACK 03 AUDIO
TITLE "Me'Olam Rachok"
PERFORMER "Greg Wall's Later Prophets"
INDEX 01 11:21:10
TRACK 04 AUDIO
TITLE "Hootzeeuni Leervaya"
PERFORMER "Greg Wall's Later Prophets"
INDEX 01 20:53:01
TRACK 05 AUDIO
TITLE "Nigun Ha'Rav #1"
PERFORMER "Greg Wall's Later Prophets"
INDEX 01 24:53:43
TRACK 06 AUDIO
TITLE "Shofar"
PERFORMER "Greg Wall's Later Prophets"
INDEX 01 30:59:55
TRACK 07 AUDIO
TITLE "Shuva Ruchi"
PERFORMER "Greg Wall's Later Prophets"
INDEX 01 33:03:43
TRACK 08 AUDIO
TITLE "Nigun Ha'Rav #2"
PERFORMER "Greg Wall's Later Prophets"
INDEX 01 35:41:53
TRACK 09 AUDIO
TITLE "Lachashei Ha'Havaya"
PERFORMER "Greg Wall's Later Prophets"
INDEX 01 39:00:57
TRACK 10 AUDIO
TITLE "Ma'Aynei Ruchi"
PERFORMER "Greg Wall's Later Prophets"
INDEX 01 45:01:33
TRACK 11 AUDIO
TITLE "Dror"
PERFORMER "Greg Wall's Later Prophets"
INDEX 01 46:33:32
TRACK 12 AUDIO
TITLE "Anee Maleh Ahava Le'Elohim"
PERFORMER "Greg Wall's Later Prophets"
INDEX 01 49:45:03
TRACK 13 AUDIO
TITLE "Sheer Merooba"
PERFORMER "Greg Wall's Later Prophets"
INDEX 01 55:16:04
TRACK 14 AUDIO
TITLE "Ha'Tzofeh Le'Tovah"
PERFORMER "Greg Wall's Later Prophets"
INDEX 01 63:04:48
Доп. информация: Несмотря на сильный акцент рэва Марморштэйна, альбом великолепный...
enjoy!
 
from Tzadik label
A leading figure in the Jewish music scene for over thirty years, Greg Wall is one of the pioneers in blending Jewish music with jazz. His newest recording with his powerful ensemble Later Prophets is a colorful and provocative mix of jazz and Jewish poetry and features the spiritual writings of Rabbi Avraham Itzchak HaCohen Kook, recently voted the most influential figure in the shaping of modern Israel. Kook was a unique blend of the traditional and the modern—and the music follows suit, with funky grooves, improvisations and even a few of Kook’s own compositions. With texts read by one of the greatest living scholars on Kook and his milieu, this is an important document of Jewish mysticism.
 
Состав
Aaron Alexander - drums
Shai Bachar - piano
Rabbi Itzchak Marmorstein - spoken word
Dave Richards - bass
Rabbi Greg Wall - tenor saxophone, soprano saxophone, clarinet, shofar, moseno
Мои раздачи
21:01
319
Нет комментариев. Ваш будет первым!