Вы используете незарегистрированную версию компонента "Вкладки"!

Поиск

(Contemporary, Psychedelia, Rock, Tzadik) Jeremy Fogel & The Sheriffs - Exorcism - 2010, APE (image+.cue) lossless

Треклист:
Jeremy Fogel & The Sheriffs / Exorcism
Жанр: Contemporary, Psychedelia, Rock, Tzadik
Страна-производитель диска: USA
Год издания диска: 2010
Издатель (лейбл): Tzadik (Radical Jewish Culture)
Номер по каталогу: TZ8153
Страна: USA/Israel
Аудио кодек: APE (*.ape)
Тип рипа: image+.cue
Битрейт аудио: lossless
Продолжительность: ~ 54 min
Источник (релизер): собственный рип
Наличие сканов в содержимом раздачи: да
Треклист:
~Exorcism~
1. Son of Gun
2. Bless Me
3. The Protocols of the Elders of Zion
4. Jewboy Jesus
5. Pulsa Denurah
6. Rock & Roll Crusade
7. Put on Your Burka
8. In God We Trust
9. Jesus Christ Anti Christ
10. Anne
11. God Has a Womb
12. Second Coming
13. When Baby Jesus will know
14. Lonesome Valley
15. A Kind of Jesus
 
EAC log
Exact Audio Copy V0.99 prebeta 5 from 4. May 2009
EAC extraction logfile from 23. March 2011, 21:29
Jeremy Fogel & The Sheriffs / Exorcism
Used drive : HL-DT-STDVD-RAM GH22NP20 Adapter: 0 ID: 0
Read mode : Secure
Utilize accurate stream : Yes
Defeat audio cache : Yes
Make use of C2 pointers : No
Read offset correction : 102
Overread into Lead-In and Lead-Out : No
Fill up missing offset samples with silence : Yes
Delete leading and trailing silent blocks : No
Null samples used in CRC calculations : Yes
Used interface : Native Win32 interface for Win NT & 2000
Used output format : Internal WAV Routines
Sample format : 44.100 Hz; 16 Bit; Stereo
TOC of the extracted CD
Track | Start | Length | Start sector | End sector
---------------------------------------------------------
1 | 0:00.00 | 3:05.55 | 0 | 13929
2 | 3:05.55 | 3:41.46 | 13930 | 30550
3 | 6:47.26 | 4:30.00 | 30551 | 50800
4 | 11:17.26 | 3:31.45 | 50801 | 66670
5 | 14:48.71 | 4:20.13 | 66671 | 86183
6 | 19:09.09 | 2:43.07 | 86184 | 98415
7 | 21:52.16 | 2:12.17 | 98416 | 108332
8 | 24:04.33 | 4:50.46 | 108333 | 130128
9 | 28:55.04 | 4:08.64 | 130129 | 148792
10 | 33:03.68 | 3:12.20 | 148793 | 163212
11 | 36:16.13 | 3:33.54 | 163213 | 179241
12 | 39:49.67 | 4:02.35 | 179242 | 197426
13 | 43:52.27 | 1:47.18 | 197427 | 205469
14 | 45:39.45 | 2:09.52 | 205470 | 215196
15 | 47:49.22 | 6:21.03 | 215197 | 243774
Range status and errors
Selected range
Filename C:\Jeremy Fogel & The Sheriffs (2010) Exorcism\Jeremy Fogel & The Sheriffs - Exorcism.wav
Peak level 99.6 %
Range quality 100.0 %
Test CRC F3F78BF2
Copy CRC F3F78BF2
Copy OK
No errors occurred
AccurateRip summary
Track 1 not present in database
Track 2 not present in database
Track 3 not present in database
Track 4 not present in database
Track 5 not present in database
Track 6 not present in database
Track 7 not present in database
Track 8 not present in database
Track 9 not present in database
Track 10 not present in database
Track 11 not present in database
Track 12 not present in database
Track 13 not present in database
Track 14 not present in database
Track 15 not present in database
None of the tracks are present in the AccurateRip database
End of status report
 
.CUE
REM GENRE Psychedelia
REM DATE 2010
REM DISCID DF0CB20F
REM COMMENT "ExactAudioCopy v0.99pb5"
PERFORMER "Jeremy Fogel & The Sheriffs"
TITLE "Exorcism"
FILE "Jeremy Fogel & The Sheriffs - Exorcism.wav" WAVE
TRACK 01 AUDIO
TITLE "Son Of Gun"
PERFORMER "Jeremy Fogel & The Sheriffs"
INDEX 01 00:00:00
TRACK 02 AUDIO
TITLE "Bless Me"
PERFORMER "Jeremy Fogel & The Sheriffs"
INDEX 01 03:05:55
TRACK 03 AUDIO
TITLE "The Protocols Of The Elders Of Zion"
PERFORMER "Jeremy Fogel & The Sheriffs"
INDEX 01 06:47:26
TRACK 04 AUDIO
TITLE "Jewboy Jesus"
PERFORMER "Jeremy Fogel & The Sheriffs"
INDEX 01 11:17:26
TRACK 05 AUDIO
TITLE "Pulsa Denurah"
PERFORMER "Jeremy Fogel & The Sheriffs"
INDEX 01 14:48:71
TRACK 06 AUDIO
TITLE "Rock & Roll Crusade"
PERFORMER "Jeremy Fogel & The Sheriffs"
INDEX 01 19:09:09
TRACK 07 AUDIO
TITLE "Put On Your Burka"
PERFORMER "Jeremy Fogel & The Sheriffs"
INDEX 01 21:52:16
TRACK 08 AUDIO
TITLE "In God We Trust"
PERFORMER "Jeremy Fogel & The Sheriffs"
INDEX 01 24:04:33
TRACK 09 AUDIO
TITLE "Jesus Christ Anti Christ"
PERFORMER "Jeremy Fogel & The Sheriffs"
INDEX 01 28:55:04
TRACK 10 AUDIO
TITLE "Anne"
PERFORMER "Jeremy Fogel & The Sheriffs"
INDEX 01 33:03:68
TRACK 11 AUDIO
TITLE "God Has A Womb"
PERFORMER "Jeremy Fogel & The Sheriffs"
INDEX 01 36:16:13
TRACK 12 AUDIO
TITLE "Second Coming"
PERFORMER "Jeremy Fogel & The Sheriffs"
INDEX 01 39:49:67
TRACK 13 AUDIO
TITLE "When Baby Jesus Will Know"
PERFORMER "Jeremy Fogel & The Sheriffs"
INDEX 01 43:52:27
TRACK 14 AUDIO
TITLE "Lonesome Valley"
PERFORMER "Jeremy Fogel & The Sheriffs"
INDEX 01 45:39:45
TRACK 15 AUDIO
TITLE "A Kind Of Jesus"
PERFORMER "Jeremy Fogel & The Sheriffs"
INDEX 01 47:49:22
Доп. информация: Это не совсем джаз... Вернее - совсем не джаз... И тем не менее - это полный Tzadik...
enjoy!
 
from Tzadik label
Jeremy Fogel and his mad band of wandering Israelis hits their stride with this passionate reading of Rabbi Jesus’ sacred message to the world and how it has been diluted and distorted by greed, power and ambition. Beginning with prophecies of wrath, anger and destruction, and moving to the overpowering intonations of good spirits, love and true mystical presences, this is a cd that will have you howling at the hypocrisies of organized religion, and laughing in delight at the ultimate victory of good over evil. Another intense ride of love with the Israeli Gainsbourg who brought you Pissuk Rachav!
 
Состав
Jeremy Fogel - vocals, clarinet
Ariel Armoni - drums, percussion, accordion
Erez Frank - bass, guitar, keyboards, pots, pans
Tal Kirshboim - guitars
Noa Rimer - vocals, organ, ritualistic instruments
+ целая куча приглашенных гостей (смотреть буклет)
Мои раздачи
По всем вопросам пишите личное сообщение пользователю M0p94ok.
10:12
229
Нет комментариев. Ваш будет первым!