Поиск

(contemporary|post bop|swing) [WEB] Walter Smith III (Christian McBride, Joshua Redman, Eric Harland, Harish Raghavan) - Twio - 2018, FLAC (tracks), lossless

(contemporary|post bop|swing) [WEB] Walter Smith III (Christian McBride, Joshua Redman, Eric Harland, Harish Raghavan) - Twio - 2018, FLAC (tracks), lossless
Walter Smith III - Twio

Жанр: contemporary, post bop, swing
Носитель: WEB
Страна-производитель диска (релиза): USA
Год издания: 2018
Издатель (лейбл): Whirlwind Recordings
Страна исполнителя (группы): USA
Аудиокодек: FLAC (*.flac)
Тип рипа: tracks
Битрейт аудио: lossless
Продолжительность: 00:48:11
Источник (релизер): http://music.whirlwindrecordings.com/album/twio
Наличие сканов в содержимом раздачи: нет
Треклист:
1. Ask Me Now
2. Nobody Else but Me
3. On the Trail (feat. Christian McBride/Joshua Redman)
4. We'll Be Together Again
5. I'll Be Seeing You (feat. Christian McBride)
6. Adam's Apple
7. The Peacocks
8. Social Call (feat. Christian McBride)
9. Contrafact (feat. Christian McBride/Joshua Redman)
 
Лог проверки качества
Общее
Полное имя                               : /Users/user/Movies/Walter Smith III - Twio (2018) [WEB FLAC]/01 - Ask Me Now.flac
Формат                                   : FLAC
Формат/Информация                        : Free Lossless Audio Codec
Размер файла                             : 33,5 Мбайт
Продолжительность                        : 6 м. 0 с.
Режим общего битрейта                    : Переменный
Общий поток                              : 779 Кбит/сек
Альбом                                   : Twio
Часть                                    : 1
Трек                                     : Ask Me Now
Трек/Положение                           : 01
Трек/Всего                               : 09
Исполнитель                              : Walter Smith III
Жанр                                     : Jazz
Дата записи                              : 2018
Обложка                                  : Yes
Тип обложки                              : Cover (front)
MIME-тип обложки                         : image/jpeg
TOTALDISC                                : 1
Аудио
Формат                                   : FLAC
Формат/Информация                        : Free Lossless Audio Codec
Продолжительность                        : 6 м. 0 с.
Вид битрейта                             : Переменный
Битрейт                                  : 776 Кбит/сек
Каналы                                   : 2 канала
Расположение каналов                     : Front: L R
Частота                                  : 44,1 КГц
Битовая глубина                          : 16 бит
Размер потока                            : 33,4 Мбайт (100%)
Библиотека кодирования                   : libFLAC 1.3.1 (UTC 2014-11-25)
Общее
Полное имя                               : /Users/user/Movies/Walter Smith III - Twio (2018) [WEB FLAC]/02 - Nobody Else.flac
Формат                                   : FLAC
Формат/Информация                        : Free Lossless Audio Codec
Размер файла                             : 28,5 Мбайт
Продолжительность                        : 4 м. 36 с.
Режим общего битрейта                    : Переменный
Общий поток                              : 864 Кбит/сек
Альбом                                   : Twio
Часть                                    : 1
Трек                                     : Nobody Else
Трек/Положение                           : 02
Трек/Всего                               : 09
Исполнитель                              : Walter Smith III
Жанр                                     : Jazz
Дата записи                              : 2018
Обложка                                  : Yes
Тип обложки                              : Cover (front)
MIME-тип обложки                         : image/jpeg
TOTALDISC                                : 1
Аудио
Формат                                   : FLAC
Формат/Информация                        : Free Lossless Audio Codec
Продолжительность                        : 4 м. 36 с.
Вид битрейта                             : Переменный
Битрейт                                  : 861 Кбит/сек
Каналы                                   : 2 канала
Расположение каналов                     : Front: L R
Частота                                  : 44,1 КГц
Битовая глубина                          : 16 бит
Размер потока                            : 28,4 Мбайт (100%)
Библиотека кодирования                   : libFLAC 1.3.1 (UTC 2014-11-25)
Общее
Полное имя                               : /Users/user/Movies/Walter Smith III - Twio (2018) [WEB FLAC]/03 - On the Trail.flac
Формат                                   : FLAC
Формат/Информация                        : Free Lossless Audio Codec
Размер файла                             : 36,8 Мбайт
Продолжительность                        : 6 м. 7 с.
Режим общего битрейта                    : Переменный
Общий поток                              : 840 Кбит/сек
Альбом                                   : Twio
Часть                                    : 1
Трек                                     : On the Trail
Трек/Положение                           : 03
Трек/Всего                               : 09
Исполнитель                              : Walter Smith III
Жанр                                     : Jazz
Дата записи                              : 2018
Обложка                                  : Yes
Тип обложки                              : Cover (front)
MIME-тип обложки                         : image/jpeg
TOTALDISC                                : 1
Аудио
Формат                                   : FLAC
Формат/Информация                        : Free Lossless Audio Codec
Продолжительность                        : 6 м. 7 с.
Вид битрейта                             : Переменный
Битрейт                                  : 837 Кбит/сек
Каналы                                   : 2 канала
Расположение каналов                     : Front: L R
Частота                                  : 44,1 КГц
Битовая глубина                          : 16 бит
Размер потока                            : 36,7 Мбайт (100%)
Библиотека кодирования                   : libFLAC 1.3.1 (UTC 2014-11-25)
Общее
Полное имя                               : /Users/user/Movies/Walter Smith III - Twio (2018) [WEB FLAC]/04 - We'll Be Together Again.flac
Формат                                   : FLAC
Формат/Информация                        : Free Lossless Audio Codec
Размер файла                             : 21,3 Мбайт
Продолжительность                        : 4 м. 17 с.
Режим общего битрейта                    : Переменный
Общий поток                              : 693 Кбит/сек
Альбом                                   : Twio
Часть                                    : 1
Трек                                     : We'll Be Together Again
Трек/Положение                           : 04
Трек/Всего                               : 09
Исполнитель                              : Walter Smith III
Жанр                                     : Jazz
Дата записи                              : 2018
Обложка                                  : Yes
Тип обложки                              : Cover (front)
MIME-тип обложки                         : image/jpeg
TOTALDISC                                : 1
Аудио
Формат                                   : FLAC
Формат/Информация                        : Free Lossless Audio Codec
Продолжительность                        : 4 м. 17 с.
Вид битрейта                             : Переменный
Битрейт                                  : 689 Кбит/сек
Каналы                                   : 2 канала
Расположение каналов                     : Front: L R
Частота                                  : 44,1 КГц
Битовая глубина                          : 16 бит
Размер потока                            : 21,1 Мбайт (99%)
Библиотека кодирования                   : libFLAC 1.3.1 (UTC 2014-11-25)
Общее
Полное имя                               : /Users/user/Movies/Walter Smith III - Twio (2018) [WEB FLAC]/05 - I'll Be Seeing You.flac
Формат                                   : FLAC
Формат/Информация                        : Free Lossless Audio Codec
Размер файла                             : 31,4 Мбайт
Продолжительность                        : 5 м. 45 с.
Режим общего битрейта                    : Переменный
Общий поток                              : 763 Кбит/сек
Альбом                                   : Twio
Часть                                    : 1
Трек                                     : I'll Be Seeing You
Трек/Положение                           : 05
Трек/Всего                               : 09
Исполнитель                              : Walter Smith III
Жанр                                     : Jazz
Дата записи                              : 2018
Обложка                                  : Yes
Тип обложки                              : Cover (front)
MIME-тип обложки                         : image/jpeg
TOTALDISC                                : 1
Аудио
Формат                                   : FLAC
Формат/Информация                        : Free Lossless Audio Codec
Продолжительность                        : 5 м. 45 с.
Вид битрейта                             : Переменный
Битрейт                                  : 761 Кбит/сек
Каналы                                   : 2 канала
Расположение каналов                     : Front: L R
Частота                                  : 44,1 КГц
Битовая глубина                          : 16 бит
Размер потока                            : 31,3 Мбайт (100%)
Библиотека кодирования                   : libFLAC 1.3.1 (UTC 2014-11-25)
Общее
Полное имя                               : /Users/user/Movies/Walter Smith III - Twio (2018) [WEB FLAC]/06 - Adam's Apple.flac
Формат                                   : FLAC
Формат/Информация                        : Free Lossless Audio Codec
Размер файла                             : 46,8 Мбайт
Продолжительность                        : 7 м. 36 с.
Режим общего битрейта                    : Переменный
Общий поток                              : 861 Кбит/сек
Альбом                                   : Twio
Часть                                    : 1
Трек                                     : Adam's Apple
Трек/Положение                           : 06
Трек/Всего                               : 09
Исполнитель                              : Walter Smith III
Жанр                                     : Jazz
Дата записи                              : 2018
Обложка                                  : Yes
Тип обложки                              : Cover (front)
MIME-тип обложки                         : image/jpeg
TOTALDISC                                : 1
Аудио
Формат                                   : FLAC
Формат/Информация                        : Free Lossless Audio Codec
Продолжительность                        : 7 м. 36 с.
Вид битрейта                             : Переменный
Битрейт                                  : 859 Кбит/сек
Каналы                                   : 2 канала
Расположение каналов                     : Front: L R
Частота                                  : 44,1 КГц
Битовая глубина                          : 16 бит
Размер потока                            : 46,7 Мбайт (100%)
Библиотека кодирования                   : libFLAC 1.3.1 (UTC 2014-11-25)
Общее
Полное имя                               : /Users/user/Movies/Walter Smith III - Twio (2018) [WEB FLAC]/07 - The Peacocks.flac
Формат                                   : FLAC
Формат/Информация                        : Free Lossless Audio Codec
Размер файла                             : 32,1 Мбайт
Продолжительность                        : 5 м. 38 с.
Режим общего битрейта                    : Переменный
Общий поток                              : 797 Кбит/сек
Альбом                                   : Twio
Часть                                    : 1
Трек                                     : The Peacocks
Трек/Положение                           : 07
Трек/Всего                               : 09
Исполнитель                              : Walter Smith III
Жанр                                     : Jazz
Дата записи                              : 2018
Обложка                                  : Yes
Тип обложки                              : Cover (front)
MIME-тип обложки                         : image/jpeg
TOTALDISC                                : 1
Аудио
Формат                                   : FLAC
Формат/Информация                        : Free Lossless Audio Codec
Продолжительность                        : 5 м. 38 с.
Вид битрейта                             : Переменный
Битрейт                                  : 794 Кбит/сек
Каналы                                   : 2 канала
Расположение каналов                     : Front: L R
Частота                                  : 44,1 КГц
Битовая глубина                          : 16 бит
Размер потока                            : 32,0 Мбайт (100%)
Библиотека кодирования                   : libFLAC 1.3.1 (UTC 2014-11-25)
Общее
Полное имя                               : /Users/user/Movies/Walter Smith III - Twio (2018) [WEB FLAC]/08 - Social Call.flac
Формат                                   : FLAC
Формат/Информация                        : Free Lossless Audio Codec
Размер файла                             : 11,9 Мбайт
Продолжительность                        : 2 м. 54 с.
Режим общего битрейта                    : Переменный
Общий поток                              : 575 Кбит/сек
Альбом                                   : Twio
Часть                                    : 1
Трек                                     : Social Call
Трек/Положение                           : 08
Трек/Всего                               : 09
Исполнитель                              : Walter Smith III
Жанр                                     : Jazz
Дата записи                              : 2018
Обложка                                  : Yes
Тип обложки                              : Cover (front)
MIME-тип обложки                         : image/jpeg
TOTALDISC                                : 1
Аудио
Формат                                   : FLAC
Формат/Информация                        : Free Lossless Audio Codec
Продолжительность                        : 2 м. 54 с.
Вид битрейта                             : Переменный
Битрейт                                  : 569 Кбит/сек
Каналы                                   : 2 канала
Расположение каналов                     : Front: L R
Частота                                  : 44,1 КГц
Битовая глубина                          : 16 бит
Размер потока                            : 11,8 Мбайт (99%)
Библиотека кодирования                   : libFLAC 1.3.1 (UTC 2014-11-25)
Общее
Полное имя                               : /Users/user/Movies/Walter Smith III - Twio (2018) [WEB FLAC]/09 - Contrafact.flac
Формат                                   : FLAC
Формат/Информация                        : Free Lossless Audio Codec
Размер файла                             : 32,6 Мбайт
Продолжительность                        : 5 м. 18 с.
Режим общего битрейта                    : Переменный
Общий поток                              : 859 Кбит/сек
Альбом                                   : Twio
Часть                                    : 1
Трек                                     : Contrafact
Трек/Положение                           : 09
Трек/Всего                               : 09
Исполнитель                              : Walter Smith III
Жанр                                     : Jazz
Дата записи                              : 2018
Обложка                                  : Yes
Тип обложки                              : Cover (front)
MIME-тип обложки                         : image/jpeg
TOTALDISC                                : 1
Аудио
Формат                                   : FLAC
Формат/Информация                        : Free Lossless Audio Codec
Продолжительность                        : 5 м. 18 с.
Вид битрейта                             : Переменный
Битрейт                                  : 856 Кбит/сек
Каналы                                   : 2 канала
Расположение каналов                     : Front: L R
Частота                                  : 44,1 КГц
Битовая глубина                          : 16 бит
Размер потока                            : 32,5 Мбайт (100%)
Библиотека кодирования                   : libFLAC 1.3.1 (UTC 2014-11-25)
 
 
Скриншот спектра частот
 
 
 
Об альбоме (сборнике)
Recorded at Sear Sound and GSI Studios by Chris Allen
Mixed by Chris Allen
Mastered by Paul Blakemore
Produced by Chris Dunn
Executive Producer for Whirlwind Recordings - Michael Janisch
Original design by Julian Montague
Photography by Jati Lindsay
 
 
Состав
Walter Smith III - tenor saxophone
Harish Raghaven - bass (1, 2, 6 & 7)
Eric Harland - drums
Special guests
Christian McBride - bass (3, 5, 8 & 9)
Joshua Redman - tenor saxophone (3 & 9)
Не забываем нажать - сказать "Спасибо"
08:54
600
Нет комментариев. Ваш будет первым!