Вы используете незарегистрированную версию компонента "Вкладки"!

Поиск

(Contemporary / Modern) Dave King - Indelicate - 2010, FLAC (tracks+.cue), lossless

(Contemporary / Modern) Dave King - Indelicate - 2010, FLAC (tracks+.cue), lossless
Треклист:
Dave King - Indelicate
Жанр: Contemporary / Modern
Год выпуска : 2010
Лейбл: Sunnyside
Аудио кодек: FLAC
Тип рипа: tracks+.cue
Битрейт аудио: lossless
Продолжительность: 00:37:29
Рип: aurallyfit - What CD


01. the werewolf and the silver bullet (4:11)
02. homage: young people (3:29)
03. bees (6:11)
04. the shell (1:26)
05. arts high boogie (4:02)
06. herman ze german cassette redux (2:01)
07. highly varnished academic realism (2:12)
08. i see you, you see me (3:58)
09. indelicate (2:31)
10. the great hammer (1:53)
11. the black dial tone of night (2:39)
12. i want to feel good (2:58)

 
EAC
Exact Audio Copy V0.99 prebeta 3 from 28. July 2007
EAC extraction logfile from 24. February 2010, 23:53
Dave King / Indelicate
Used drive : SAMSUNG CDRW/DVD SN-324S Adapter: 1 ID: 0
Read mode : Secure
Utilize accurate stream : Yes
Defeat audio cache : Yes
Make use of C2 pointers : No
Read offset correction : 6
Overread into Lead-In and Lead-Out : No
Fill up missing offset samples with silence : Yes
Delete leading and trailing silent blocks : No
Null samples used in CRC calculations : Yes
Used interface : Native Win32 interface for Win NT & 2000
Gap handling : Appended to previous track
Used output format : User Defined Encoder
Selected bitrate : 128 kBit/s
Quality : High
Add ID3 tag : No
Command line compressor : C:\Program Files\Exact Audio Copy\Flac\flac.exe
Additional command line options : -V -8 -T "artist=%a" -T "title=%t" -T "album=%g" -T "date=%y" -T "tracknumber=%n" -T "genre=%m" %s
TOC of the extracted CD
Track | Start | Length | Start sector | End sector
---------------------------------------------------------
1 | 0:00.00 | 4:10.56 | 0 | 18805
2 | 4:10.56 | 3:29.27 | 18806 | 34507
3 | 7:40.08 | 6:10.46 | 34508 | 62303
4 | 13:50.54 | 1:25.39 | 62304 | 68717
5 | 15:16.18 | 4:02.18 | 68718 | 86885
6 | 19:18.36 | 2:01.08 | 86886 | 95968
7 | 21:19.44 | 2:11.60 | 95969 | 105853
8 | 23:31.29 | 3:57.67 | 105854 | 123695
9 | 27:29.21 | 2:30.64 | 123696 | 135009
10 | 30:00.10 | 1:52.55 | 135010 | 143464
11 | 31:52.65 | 2:38.55 | 143465 | 155369
12 | 34:31.45 | 2:58.03 | 155370 | 168722
Track 1
Filename E:\My Music\Ripped\Dave King - 2010 - Indelicate\01 - the werewolf and the silver bullet.wav
Pre-gap length 0:00:02.00
Peak level 96.0 %
Track quality 100.0 %
Test CRC 8FAB0B4E
Copy CRC 8FAB0B4E
Track not present in AccurateRip database
Copy OK
Track 2
Filename E:\My Music\Ripped\Dave King - 2010 - Indelicate\02 - homage- young people.wav
Peak level 96.0 %
Track quality 100.0 %
Test CRC 472B0C3C
Copy CRC 472B0C3C
Track not present in AccurateRip database
Copy OK
Track 3
Filename E:\My Music\Ripped\Dave King - 2010 - Indelicate\03 - bees.wav
Pre-gap length 0:00:04.70
Peak level 96.0 %
Track quality 100.0 %
Test CRC 684232C8
Copy CRC 684232C8
Track not present in AccurateRip database
Copy OK
Track 4
Filename E:\My Music\Ripped\Dave King - 2010 - Indelicate\04 - the shell.wav
Pre-gap length 0:00:03.53
Peak level 96.0 %
Track quality 100.0 %
Test CRC 68E5144F
Copy CRC 68E5144F
Track not present in AccurateRip database
Copy OK
Track 5
Filename E:\My Music\Ripped\Dave King - 2010 - Indelicate\05 - arts high boogie.wav
Peak level 96.0 %
Track quality 100.0 %
Test CRC 5B9276E1
Copy CRC 5B9276E1
Track not present in AccurateRip database
Copy OK
Track 6
Filename E:\My Music\Ripped\Dave King - 2010 - Indelicate\06 - herman ze german cassette redux.wav
Pre-gap length 0:00:03.44
Peak level 96.0 %
Track quality 100.0 %
Test CRC D3883AE2
Copy CRC D3883AE2
Track not present in AccurateRip database
Copy OK
Track 7
Filename E:\My Music\Ripped\Dave King - 2010 - Indelicate\07 - highly varnished academic realism.wav
Pre-gap length 0:00:02.10
Peak level 96.0 %
Track quality 100.0 %
Test CRC 977D3745
Copy CRC 977D3745
Track not present in AccurateRip database
Copy OK
Track 8
Filename E:\My Music\Ripped\Dave King - 2010 - Indelicate\08 - i see you, you see me.wav
Pre-gap length 0:00:04.22
Peak level 96.0 %
Track quality 100.0 %
Test CRC 146093F2
Copy CRC 146093F2
Track not present in AccurateRip database
Copy OK
Track 9
Filename E:\My Music\Ripped\Dave King - 2010 - Indelicate\09 - indelicate.wav
Pre-gap length 0:00:05.80
Peak level 96.0 %
Track quality 100.0 %
Test CRC 5A8AA685
Copy CRC 5A8AA685
Track not present in AccurateRip database
Copy OK
Track 10
Filename E:\My Music\Ripped\Dave King - 2010 - Indelicate\10 - the great hammer.wav
Pre-gap length 0:00:04.04
Peak level 96.0 %
Track quality 100.0 %
Test CRC 5557F71E
Copy CRC 5557F71E
Track not present in AccurateRip database
Copy OK
Track 11
Filename E:\My Music\Ripped\Dave King - 2010 - Indelicate\11 - the black dial tone of night.wav
Pre-gap length 0:00:04.13
Peak level 96.0 %
Track quality 99.9 %
Test CRC F9E4157B
Copy CRC F9E4157B
Track not present in AccurateRip database
Copy OK
Track 12
Filename E:\My Music\Ripped\Dave King - 2010 - Indelicate\12 - i want to feel good.wav
Pre-gap length 0:00:05.42
Peak level 96.0 %
Track quality 100.0 %
Test CRC 336FD973
Copy CRC 336FD973
Track not present in AccurateRip database
Copy OK
None of the tracks are present in the AccurateRip database
No errors occurred
End of status report
 
CUE
REM GENRE Jazz
REM DATE 2010
REM DISCID 8608C90C
REM COMMENT "ExactAudioCopy v0.99pb3"
PERFORMER "Dave King"
TITLE "Indelicate"
FILE "01 - the werewolf and the silver bullet.wav" WAVE
TRACK 01 AUDIO
TITLE "the werewolf and the silver bullet"
PERFORMER "Dave King"
INDEX 01 00:00:00
FILE "02 - homage- young people.wav" WAVE
TRACK 02 AUDIO
TITLE "homage: young people"
PERFORMER "Dave King"
INDEX 01 00:00:00
TRACK 03 AUDIO
TITLE "bees"
PERFORMER "Dave King"
INDEX 00 03:24:49
FILE "03 - bees.wav" WAVE
INDEX 01 00:00:00
TRACK 04 AUDIO
TITLE "the shell"
PERFORMER "Dave King"
INDEX 00 06:07:06
FILE "04 - the shell.wav" WAVE
INDEX 01 00:00:00
FILE "05 - arts high boogie.wav" WAVE
TRACK 05 AUDIO
TITLE "arts high boogie"
PERFORMER "Dave King"
INDEX 01 00:00:00
TRACK 06 AUDIO
TITLE "herman ze german cassette redux"
PERFORMER "Dave King"
INDEX 00 03:58:60
FILE "06 - herman ze german cassette redux.wav" WAVE
INDEX 01 00:00:00
TRACK 07 AUDIO
TITLE "highly varnished academic realism"
PERFORMER "Dave King"
INDEX 00 01:59:00
FILE "07 - highly varnished academic realism.wav" WAVE
INDEX 01 00:00:00
TRACK 08 AUDIO
TITLE "i see you, you see me"
PERFORMER "Dave King"
INDEX 00 02:07:43
FILE "08 - i see you, you see me.wav" WAVE
INDEX 01 00:00:00
TRACK 09 AUDIO
TITLE "indelicate"
PERFORMER "Dave King"
INDEX 00 03:52:07
FILE "09 - indelicate.wav" WAVE
INDEX 01 00:00:00
TRACK 10 AUDIO
TITLE "the great hammer"
PERFORMER "Dave King"
INDEX 00 02:26:61
FILE "10 - the great hammer.wav" WAVE
INDEX 01 00:00:00
TRACK 11 AUDIO
TITLE "the black dial tone of night"
PERFORMER "Dave King"
INDEX 00 01:48:45
FILE "11 - the black dial tone of night.wav" WAVE
INDEX 01 00:00:00
TRACK 12 AUDIO
TITLE "i want to feel good"
PERFORMER "Dave King"
INDEX 00 02:33:23
FILE "12 - i want to feel good.wav" WAVE
INDEX 01 00:00:00
 
Audiochecker
Started at: пятница, 26. 02. 2010. - 13:35.57
12 files found
01 -===- C:\Downloads\Music\Джаз\Dave King - 2010 - Indelicate\01 - the werewolf and the silver bullet.flac
Extracted successfully
Conclusion: This track looks like CDDA with probability 100%
Tempfile successfully deleted.
02 -===- C:\Downloads\Music\Джаз\Dave King - 2010 - Indelicate\02 - homage- young people.flac
Extracted successfully
Conclusion: This track looks like CDDA with probability 100%
Tempfile successfully deleted.
03 -===- C:\Downloads\Music\Джаз\Dave King - 2010 - Indelicate\03 - bees.flac
Extracted successfully
Conclusion: This track looks like CDDA with probability 100%
Tempfile successfully deleted.
04 -===- C:\Downloads\Music\Джаз\Dave King - 2010 - Indelicate\04 - the shell.flac
Extracted successfully
Conclusion: This track looks like CDDA with probability 100%
Tempfile successfully deleted.
05 -===- C:\Downloads\Music\Джаз\Dave King - 2010 - Indelicate\05 - arts high boogie.flac
Extracted successfully
Conclusion: This track looks like CDDA with probability 100%
Tempfile successfully deleted.
06 -===- C:\Downloads\Music\Джаз\Dave King - 2010 - Indelicate\06 - herman ze german cassette redux.flac
Extracted successfully
Conclusion: This track looks like CDDA with probability 100%
Tempfile successfully deleted.
07 -===- C:\Downloads\Music\Джаз\Dave King - 2010 - Indelicate\07 - highly varnished academic realism.flac
Extracted successfully
Conclusion: This track looks like CDDA with probability 100%
Tempfile successfully deleted.
08 -===- C:\Downloads\Music\Джаз\Dave King - 2010 - Indelicate\08 - i see you, you see me.flac
Extracted successfully
Conclusion: This track looks like CDDA with probability 100%
Tempfile successfully deleted.
09 -===- C:\Downloads\Music\Джаз\Dave King - 2010 - Indelicate\09 - indelicate.flac
Extracted successfully
Conclusion: This track looks like CDDA with probability 100%
Tempfile successfully deleted.
10 -===- C:\Downloads\Music\Джаз\Dave King - 2010 - Indelicate\10 - the great hammer.flac
Extracted successfully
Conclusion: This track looks like CDDA with probability 99%
Tempfile successfully deleted.
11 -===- C:\Downloads\Music\Джаз\Dave King - 2010 - Indelicate\11 - the black dial tone of night.flac
Extracted successfully
Conclusion: This track looks like CDDA with probability 100%
Tempfile successfully deleted.
12 -===- C:\Downloads\Music\Джаз\Dave King - 2010 - Indelicate\12 - i want to feel good.flac
Extracted successfully
Conclusion: This track looks like CDDA with probability 99%
Tempfile successfully deleted.
Finished at: пятница, 26. 02. 2010. - 13:43.21 (operation time: 0:07.23)
По всем вопросам пишите личное сообщение пользователю M0p94ok.
19:17
186
Нет комментариев. Ваш будет первым!