Поиск

(Contemporary Jazz/World Fusion) Bill Frisell & Elvis Costello - The Sweetest Punch: The Songs of Costello and Bacharach - 1999, FLAC (tracks+.cue), lossless

Треклист:
Bill Frisell & Elvis Costello - The Sweetest Punch: The Songs of Costello and Bacharach
Жанр: Contemporary Jazz/World Fusion
Год выпуска диска: 1999
Производитель диска: Germany
Аудио кодек: FLAC
Тип рипа: tracks+.cue
Битрейт аудио: lossless
Продолжительность: 64:26
Лейбл: Decca
Источник: AvaxHome/ruskaval
Трэклист:
1. The Sweetest Punch
2. Toledo
3. Such Unlikely Lovers
4. This House Is Empty Now
5. Painted from Memory (featuring Cassandra Wilson)
6. What's Her Name Today?
7. In the Darkest Place
8. Vamp Dolice
9. My Thief
10. I Still Have That Other Girl (featuring Cassandra Wilson)
11. Painted from Memory (Reprise)
12. The Long Division
13. Tears at the Birthday Party
14. I Still Have That Other Girl (Reprise)
15. God Give Me Strength
Музыканты:
Bill Frisell - acoustic & electric guitars
Elvis Costello, Cassandra Wilson - vocals
Billy Drewes - alto sax
Ron Miles - trumpet
Curtis Fowlkes - trombone
Don Byron - clarinet, bass clarinet
Viktor Krauss - bass
Brian Blade - drums, percussion
Доп. информация: На замену теме со статусом "сомнительно".
 
Отчёт EAC
Exact Audio Copy V0.99 prebeta 5 from 4. May 2009
EAC extraction logfile from 29. August 2010, 11:06
Bill Frisell & Elvis Costello / The Sweetest Punch
Used drive : TSSTcorpCD/DVDW TS-H552L Adapter: 3 ID: 0
Read mode : Secure
Utilize accurate stream : Yes
Defeat audio cache : Yes
Make use of C2 pointers : No
Read offset correction : 6
Overread into Lead-In and Lead-Out : No
Fill up missing offset samples with silence : Yes
Delete leading and trailing silent blocks : No
Null samples used in CRC calculations : Yes
Used interface : Native Win32 interface for Win NT & 2000
Gap handling : Appended to previous track
Used output format : User Defined Encoder
Selected bitrate : 1024 kBit/s
Quality : High
Add ID3 tag : No
Command line compressor : C:\Program Files\FLAC\flac.exe
Additional command line options : -6 -V -T "ARTIST=%a" -T "TITLE=%t" -T "ALBUM=%g" -T "DATE=%y" -T "TRACKNUMBER=%n" -T "GENRE=%m" -T "COMMENT=EAC FLAC -6" %s
TOC of the extracted CD
Track | Start | Length | Start sector | End sector
---------------------------------------------------------
1 | 0:00.00 | 4:45.57 | 0 | 21431
2 | 4:45.57 | 5:27.13 | 21432 | 45969
3 | 10:12.70 | 5:44.65 | 45970 | 71834
4 | 15:57.60 | 5:04.15 | 71835 | 94649
5 | 21:02.00 | 4:10.47 | 94650 | 113446
6 | 25:12.47 | 4:57.48 | 113447 | 135769
7 | 30:10.20 | 5:56.30 | 135770 | 162499
8 | 36:06.50 | 3:27.20 | 162500 | 178044
9 | 39:33.70 | 4:31.20 | 178045 | 198389
10 | 44:05.15 | 2:23.02 | 198390 | 209116
11 | 46:28.17 | 3:38.45 | 209117 | 225511
12 | 50:06.62 | 3:59.60 | 225512 | 243496
13 | 54:06.47 | 3:44.10 | 243497 | 260306
14 | 57:50.57 | 1:53.15 | 260307 | 268796
15 | 59:43.72 | 4:41.45 | 268797 | 289916
Track 1
Filename C:\ruskaval\Bill Frisell & Elvis Costello - The Sweetest Punch. The Songs of Costello and Bacharach (1999) {Decca}\01 - The Sweetest Punch.wav
Pre-gap length 0:00:02.00
Peak level 99.8 %
Track quality 100.0 %
Test CRC CE47B1F7
Copy CRC CE47B1F7
Accurately ripped (confidence 14) [7CB3BF6E]
Copy OK
Track 2
Filename C:\ruskaval\Bill Frisell & Elvis Costello - The Sweetest Punch. The Songs of Costello and Bacharach (1999) {Decca}\02 - Toledo.wav
Pre-gap length 0:00:01.42
Peak level 99.8 %
Track quality 100.0 %
Test CRC EE25B436
Copy CRC EE25B436
Accurately ripped (confidence 15) [9FA7CAF4]
Copy OK
Track 3
Filename C:\ruskaval\Bill Frisell & Elvis Costello - The Sweetest Punch. The Songs of Costello and Bacharach (1999) {Decca}\03 - Such Unlikely Lovers.wav
Pre-gap length 0:00:01.70
Peak level 99.8 %
Track quality 100.0 %
Test CRC 3EF0D048
Copy CRC 3EF0D048
Accurately ripped (confidence 16) [BF05D213]
Copy OK
Track 4
Filename C:\ruskaval\Bill Frisell & Elvis Costello - The Sweetest Punch. The Songs of Costello and Bacharach (1999) {Decca}\04 - This House Is Empty Now.wav
Pre-gap length 0:00:02.03
Peak level 99.8 %
Track quality 100.0 %
Test CRC 49EE864C
Copy CRC 49EE864C
Accurately ripped (confidence 14) [FF0DCAFD]
Copy OK
Track 5
Filename C:\ruskaval\Bill Frisell & Elvis Costello - The Sweetest Punch. The Songs of Costello and Bacharach (1999) {Decca}\05 - Painted From Memory.wav
Pre-gap length 0:00:01.23
Peak level 71.9 %
Track quality 100.0 %
Test CRC 63FDC9FE
Copy CRC 63FDC9FE
Accurately ripped (confidence 16) [68C1EC4E]
Copy OK
Track 6
Filename C:\ruskaval\Bill Frisell & Elvis Costello - The Sweetest Punch. The Songs of Costello and Bacharach (1999) {Decca}\06 - What's Her Name Today .wav
Pre-gap length 0:00:01.05
Peak level 99.8 %
Track quality 100.0 %
Test CRC 45FB4BB4
Copy CRC 45FB4BB4
Accurately ripped (confidence 15) [4505DF90]
Copy OK
Track 7
Filename C:\ruskaval\Bill Frisell & Elvis Costello - The Sweetest Punch. The Songs of Costello and Bacharach (1999) {Decca}\07 - In The Darkest Place.wav
Peak level 99.8 %
Track quality 100.0 %
Test CRC 81932A22
Copy CRC 81932A22
Accurately ripped (confidence 14) [234B50FB]
Copy OK
Track 8
Filename C:\ruskaval\Bill Frisell & Elvis Costello - The Sweetest Punch. The Songs of Costello and Bacharach (1999) {Decca}\08 - Vamp Dolce.wav
Pre-gap length 0:00:01.35
Peak level 99.8 %
Track quality 100.0 %
Test CRC D31F7792
Copy CRC D31F7792
Accurately ripped (confidence 16) [98CF6865]
Copy OK
Track 9
Filename C:\ruskaval\Bill Frisell & Elvis Costello - The Sweetest Punch. The Songs of Costello and Bacharach (1999) {Decca}\09 - My Thief.wav
Pre-gap length 0:00:02.43
Peak level 73.5 %
Track quality 100.0 %
Test CRC 18CE5D87
Copy CRC 18CE5D87
Accurately ripped (confidence 16) [30298762]
Copy OK
Track 10
Filename C:\ruskaval\Bill Frisell & Elvis Costello - The Sweetest Punch. The Songs of Costello and Bacharach (1999) {Decca}\10 - I Still Have That Other Girl.wav
Peak level 99.8 %
Track quality 100.0 %
Test CRC BED244F8
Copy CRC BED244F8
Accurately ripped (confidence 15) [D359864A]
Copy OK
Track 11
Filename C:\ruskaval\Bill Frisell & Elvis Costello - The Sweetest Punch. The Songs of Costello and Bacharach (1999) {Decca}\11 - Painted From Memory (Reprise).wav
Pre-gap length 0:00:01.15
Peak level 95.3 %
Track quality 100.0 %
Test CRC 2F1BB130
Copy CRC 2F1BB130
Accurately ripped (confidence 16) [4D9BEDAD]
Copy OK
Track 12
Filename C:\ruskaval\Bill Frisell & Elvis Costello - The Sweetest Punch. The Songs of Costello and Bacharach (1999) {Decca}\12 - The Long Division.wav
Pre-gap length 0:00:02.40
Peak level 99.8 %
Track quality 100.0 %
Test CRC 29E6766C
Copy CRC 29E6766C
Accurately ripped (confidence 16) [A1B1F155]
Copy OK
Track 13
Filename C:\ruskaval\Bill Frisell & Elvis Costello - The Sweetest Punch. The Songs of Costello and Bacharach (1999) {Decca}\13 - Tears At The Birthday Party.wav
Pre-gap length 0:00:01.17
Peak level 99.8 %
Track quality 99.9 %
Test CRC 52CB8728
Copy CRC 52CB8728
Accurately ripped (confidence 15) [4A591538]
Copy OK
Track 14
Filename C:\ruskaval\Bill Frisell & Elvis Costello - The Sweetest Punch. The Songs of Costello and Bacharach (1999) {Decca}\14 - I Still Have That Other Girl (Reprise).wav
Peak level 99.8 %
Track quality 99.9 %
Test CRC 7DA97502
Copy CRC 7DA97502
Accurately ripped (confidence 16) [AF2194B9]
Copy OK
Track 15
Filename C:\ruskaval\Bill Frisell & Elvis Costello - The Sweetest Punch. The Songs of Costello and Bacharach (1999) {Decca}\15 - God Give Me Strength.wav
Pre-gap length 0:00:01.40
Peak level 99.8 %
Track quality 99.9 %
Test CRC 72EE3ADB
Copy CRC 72EE3ADB
Accurately ripped (confidence 14) [689CFC7B]
Copy OK
All tracks accurately ripped
No errors occurred
End of status report
 
CUE
REM GENRE Jazz
REM DATE 1999
REM DISCID E10F190F
REM COMMENT "ExactAudioCopy v0.99pb5"
PERFORMER "Bill Frisell & Elvis Costello"
TITLE "The Sweetest Punch"
FILE "01 - The Sweetest Punch.wav" WAVE
TRACK 01 AUDIO
TITLE "The Sweetest Punch"
PERFORMER "Bill Frisell & Elvis Costello"
INDEX 01 00:00:00
TRACK 02 AUDIO
TITLE "Toledo"
PERFORMER "Bill Frisell & Elvis Costello"
INDEX 00 04:44:15
FILE "02 - Toledo.wav" WAVE
INDEX 01 00:00:00
TRACK 03 AUDIO
TITLE "Such Unlikely Lovers"
PERFORMER "Bill Frisell & Elvis Costello"
INDEX 00 05:25:18
FILE "03 - Such Unlikely Lovers.wav" WAVE
INDEX 01 00:00:00
TRACK 04 AUDIO
TITLE "This House Is Empty Now"
PERFORMER "Bill Frisell & Elvis Costello"
INDEX 00 05:42:62
FILE "04 - This House Is Empty Now.wav" WAVE
INDEX 01 00:00:00
TRACK 05 AUDIO
TITLE "Painted From Memory"
PERFORMER "Bill Frisell & Elvis Costello"
INDEX 00 05:02:67
FILE "05 - Painted From Memory.wav" WAVE
INDEX 01 00:00:00
TRACK 06 AUDIO
TITLE "What's Her Name Today?"
PERFORMER "Bill Frisell & Elvis Costello"
INDEX 00 04:09:42
FILE "06 - What's Her Name Today .wav" WAVE
INDEX 01 00:00:00
FILE "07 - In The Darkest Place.wav" WAVE
TRACK 07 AUDIO
TITLE "In The Darkest Place"
PERFORMER "Bill Frisell & Elvis Costello"
INDEX 01 00:00:00
TRACK 08 AUDIO
TITLE "Vamp Dolce"
PERFORMER "Bill Frisell & Elvis Costello"
INDEX 00 05:54:70
FILE "08 - Vamp Dolce.wav" WAVE
INDEX 01 00:00:00
TRACK 09 AUDIO
TITLE "My Thief"
PERFORMER "Bill Frisell & Elvis Costello"
INDEX 00 03:24:52
FILE "09 - My Thief.wav" WAVE
INDEX 01 00:00:00
FILE "10 - I Still Have That Other Girl.wav" WAVE
TRACK 10 AUDIO
TITLE "I Still Have That Other Girl"
PERFORMER "Bill Frisell & Elvis Costello"
INDEX 01 00:00:00
TRACK 11 AUDIO
TITLE "Painted From Memory (Reprise)"
PERFORMER "Bill Frisell & Elvis Costello"
INDEX 00 02:21:62
FILE "11 - Painted From Memory (Reprise).wav" WAVE
INDEX 01 00:00:00
TRACK 12 AUDIO
TITLE "The Long Division"
PERFORMER "Bill Frisell & Elvis Costello"
INDEX 00 03:36:05
FILE "12 - The Long Division.wav" WAVE
INDEX 01 00:00:00
TRACK 13 AUDIO
TITLE "Tears At The Birthday Party"
PERFORMER "Bill Frisell & Elvis Costello"
INDEX 00 03:58:43
FILE "13 - Tears At The Birthday Party.wav" WAVE
INDEX 01 00:00:00
FILE "14 - I Still Have That Other Girl (Reprise).wav" WAVE
TRACK 14 AUDIO
TITLE "I Still Have That Other Girl (Reprise)"
PERFORMER "Bill Frisell & Elvis Costello"
INDEX 01 00:00:00
TRACK 15 AUDIO
TITLE "God Give Me Strength"
PERFORMER "Bill Frisell & Elvis Costello"
INDEX 00 01:51:50
FILE "15 - God Give Me Strength.wav" WAVE
INDEX 01 00:00:00
17:47
414
Нет комментариев. Ваш будет первым!