Вы используете незарегистрированную версию компонента "Вкладки"!

Поиск

(contemporary jazz/modern creative) 5+2 Brass Ensemble - Invisible Cities and Other Works - 2005, FLAC (image+.cue) lossless

Треклист:
5+2 Brass Ensemble / Invisible Cities and Other Works
Жанр: contemporary jazz/modern creative
Страна-производитель диска: Australia
Год издания диска: 2005
Издатель (лейбл): Rufus Recorsd
Номер по каталогу: RF064
Страна: Australia
Аудио кодек: FLAC (*.flac)
Тип рипа: image+.cue
Битрейт аудио: lossless
Продолжительность: 43:02
Источник (релизер): собственный рип
Наличие сканов в содержимом раздачи: да
Треклист:
1. allthe gravitation of silence
2. cities and desire
3. hypatia
4. cities and signs
5. cities and memory
7. fragment
8. haiku for 5 brass
9. loopy
 
Лог создания рипа
Exact Audio Copy V0.99 prebeta 5 from 4. May 2009
EAC extraction logfile from 8. December 2010, 11:06
5+2 Brass Ensemble / Invisible Cities + Other Works
Used drive : Optiarc DVD RW AD-7243S Adapter: 0 ID: 1
Read mode : Secure
Utilize accurate stream : Yes
Defeat audio cache : Yes
Make use of C2 pointers : No
Read offset correction : 48
Overread into Lead-In and Lead-Out : No
Fill up missing offset samples with silence : Yes
Delete leading and trailing silent blocks : No
Null samples used in CRC calculations : Yes
Used interface : Native Win32 interface for Win NT & 2000
Used output format : User Defined Encoder
Selected bitrate : 768 kBit/s
Quality : High
Add ID3 tag : No
Command line compressor : C:\Program Files\Exact Audio Copy\FLAC\FLAC.EXE
Additional command line options : -6 -V -T "ARTIST=%a" -T "TITLE=%t" -T "ALBUM=%g" -T "DATE=%y" -T "TRACKNUMBER=%n" -T "GENRE=%m" -T "COMMENT=%e" %s -o %d
TOC of the extracted CD
Track | Start | Length | Start sector | End sector
---------------------------------------------------------
1 | 0:00.00 | 6:51.41 | 0 | 30865
2 | 6:51.41 | 8:37.73 | 30866 | 69713
3 | 15:29.39 | 6:34.02 | 69714 | 99265
4 | 22:03.41 | 5:39.02 | 99266 | 124692
5 | 27:42.43 | 4:26.12 | 124693 | 144654
6 | 32:08.55 | 5:24.05 | 144655 | 168959
7 | 37:32.60 | 0:49.54 | 168960 | 172688
8 | 38:22.39 | 6:08.23 | 172689 | 200311
9 | 44:30.62 | 0:34.51 | 200312 | 202912
Range status and errors
Selected range
Filename C:\Documents and Settings\S\Мои документы\Torrent раздача\5+2 Brass Ensemble - Invisible Cities + Other Works.wav
Peak level 92.2 %
Range quality 100.0 %
Test CRC D0CCFD82
Copy CRC D0CCFD82
Copy OK
No errors occurred
AccurateRip summary
Track 1 not present in database
Track 2 not present in database
Track 3 not present in database
Track 4 not present in database
Track 5 not present in database
Track 6 not present in database
Track 7 not present in database
Track 8 not present in database
Track 9 not present in database
None of the tracks are present in the AccurateRip database
End of status report
 
Состав
peter knight - trumpet
geoff collinson - french horn
kynan robinson - trombone
adrian sherriff - bass trombone
anita hustas - double bass
rajiv jayaweera - drums/percussion
Другие раздачи
http://rutracker.org/forum/search.php?uid=17163016
По всем вопросам пишите личное сообщение пользователю M0p94ok.
06:17
143
Нет комментариев. Ваш будет первым!