Поиск

(Contemporary Jazz/Fusion) Kenny Garrett - Prisoner Of Love - 1989, FLAC (tracks+.cue), lossless

Треклист:
Kenny Garrett / Prisoner Of Love
Жанр: Contemporary Jazz/Fusion
Страна-производитель диска: USA
Год издания диска: 1989
Издатель (лейбл): Atlantic Jazz
Номер по каталогу: 7 82046-2
Страна: USA
Аудиокодек: FLAC (*.flac)
Тип рипа: tracks+.cue
Битрейт аудио: lossless
Продолжительность: 43:05
Источник (релизер): funky_cat
Наличие сканов в содержимом раздачи: да
Треклист:
1 May I Have This Dance? 04:29
2 Blue Moon 04:12
3 Prisoner Of Love 05:22
4 Put A Smile On Your Face 04:06
5 Sayydah's Single File Groove 05:04
6 Big 'Ol Head 04:55
7 Free Mandela 06:08
8 Peace For Dream 03:14
9 Lift Ev'ry Voice And Sing 05:32
 
Лог создания рипа
X Lossless Decoder version 20110703 (135.1)
XLD extraction logfile from 2011-08-08 10:34:03 +0400
Kenny Garrett / Prisoner Of Love
Used drive : HL-DT-ST DVDRW GS23N (revision SB00)
Ripper mode : CDParanoia III 10.2
Disable audio cache : OK for the drive with a cache less than 2750KiB
Make use of C2 pointers : NO
Read offset correction : 667
Max retry count : 10
Gap status : Analyzed, Appended
TOC of the extracted CD
Track | Start | Length | Start sector | End sector
---------------------------------------------------------
1 | 00:00:00 | 04:29:58 | 0 | 20232
2 | 04:29:58 | 04:12:05 | 20233 | 39137
3 | 08:41:63 | 05:22:20 | 39138 | 63307
4 | 14:04:08 | 04:06:32 | 63308 | 81789
5 | 18:10:40 | 05:04:03 | 81790 | 104592
6 | 23:14:43 | 04:55:15 | 104593 | 126732
7 | 28:09:58 | 06:08:50 | 126733 | 154382
8 | 34:18:33 | 03:14:55 | 154383 | 168987
9 | 37:33:13 | 05:32:20 | 168988 | 193907
AccurateRip Summary
Disc not found in AccurateRip DB.
All Tracks
Album gain : -2.77 dB
Peak : 1.000000
Statistics
Read error : 0
Skipped (treated as error) : 0
Edge jitter error (maybe fixed) : 0
Atom jitter error (maybe fixed) : 0
Drift error (maybe fixed) : 0
Dropped bytes error (maybe fixed) : 0
Duplicated bytes error (maybe fixed) : 0
Track 01
Filename : /Users/olegbelov/Downloads/Kenny Garrett - Prisoner Of Love (1989)/01 - May I Have This Dance?.flac
Pre-gap length : 00:02:00
Track gain : -2.08 dB
Peak : 0.945435
CRC32 hash (test run) : 54BDF9F9
CRC32 hash : 54BDF9F9
CRC32 hash (skip zero) : AC948422
AccurateRip signature : CC9AC1CD
->Track not present in AccurateRip database.
Statistics
Read error : 0
Skipped (treated as error) : 0
Edge jitter error (maybe fixed) : 0
Atom jitter error (maybe fixed) : 0
Drift error (maybe fixed) : 0
Dropped bytes error (maybe fixed) : 0
Duplicated bytes error (maybe fixed) : 0
Inconsistency in error sectors : 0
Track 02
Filename : /Users/olegbelov/Downloads/Kenny Garrett - Prisoner Of Love (1989)/02 - Blue Moon.flac
Track gain : -1.77 dB
Peak : 0.999969
CRC32 hash (test run) : 88BE013D
CRC32 hash : 88BE013D
CRC32 hash (skip zero) : 0444E023
AccurateRip signature : E108E87E
->Track not present in AccurateRip database.
Statistics
Read error : 0
Skipped (treated as error) : 0
Edge jitter error (maybe fixed) : 0
Atom jitter error (maybe fixed) : 0
Drift error (maybe fixed) : 0
Dropped bytes error (maybe fixed) : 0
Duplicated bytes error (maybe fixed) : 0
Inconsistency in error sectors : 0
Track 03
Filename : /Users/olegbelov/Downloads/Kenny Garrett - Prisoner Of Love (1989)/03 - Prisoner Of Love.flac
Track gain : -2.19 dB
Peak : 0.999573
CRC32 hash (test run) : 0C2BDE2F
CRC32 hash : 0C2BDE2F
CRC32 hash (skip zero) : 34E29149
AccurateRip signature : 5DA54246
->Track not present in AccurateRip database.
Statistics
Read error : 0
Skipped (treated as error) : 0
Edge jitter error (maybe fixed) : 0
Atom jitter error (maybe fixed) : 0
Drift error (maybe fixed) : 0
Dropped bytes error (maybe fixed) : 0
Duplicated bytes error (maybe fixed) : 0
Inconsistency in error sectors : 0
Track 04
Filename : /Users/olegbelov/Downloads/Kenny Garrett - Prisoner Of Love (1989)/04 - Put A Smile On Your Face.flac
Track gain : -2.52 dB
Peak : 0.999969
CRC32 hash (test run) : 4E25AAAA
CRC32 hash : 4E25AAAA
CRC32 hash (skip zero) : BB0EC184
AccurateRip signature : 7632315A
->Track not present in AccurateRip database.
Statistics
Read error : 0
Skipped (treated as error) : 0
Edge jitter error (maybe fixed) : 0
Atom jitter error (maybe fixed) : 0
Drift error (maybe fixed) : 0
Dropped bytes error (maybe fixed) : 0
Duplicated bytes error (maybe fixed) : 0
Inconsistency in error sectors : 0
Track 05
Filename : /Users/olegbelov/Downloads/Kenny Garrett - Prisoner Of Love (1989)/05 - Sayydah's Single File Groove.flac
Track gain : -5.04 dB
Peak : 1.000000
CRC32 hash (test run) : 3E13A8CB
CRC32 hash : 3E13A8CB
CRC32 hash (skip zero) : 96A1476D
AccurateRip signature : B1DB993A
->Track not present in AccurateRip database.
Statistics
Read error : 0
Skipped (treated as error) : 0
Edge jitter error (maybe fixed) : 0
Atom jitter error (maybe fixed) : 0
Drift error (maybe fixed) : 0
Dropped bytes error (maybe fixed) : 0
Duplicated bytes error (maybe fixed) : 0
Inconsistency in error sectors : 0
Track 06
Filename : /Users/olegbelov/Downloads/Kenny Garrett - Prisoner Of Love (1989)/06 - Big 'Ol Head.flac
Track gain : -3.77 dB
Peak : 0.999969
CRC32 hash (test run) : 77631C80
CRC32 hash : 77631C80
CRC32 hash (skip zero) : 9DA3412D
AccurateRip signature : 1A07C41A
->Track not present in AccurateRip database.
Statistics
Read error : 0
Skipped (treated as error) : 0
Edge jitter error (maybe fixed) : 0
Atom jitter error (maybe fixed) : 0
Drift error (maybe fixed) : 0
Dropped bytes error (maybe fixed) : 0
Duplicated bytes error (maybe fixed) : 0
Inconsistency in error sectors : 0
Track 07
Filename : /Users/olegbelov/Downloads/Kenny Garrett - Prisoner Of Love (1989)/07 - Free Mandela.flac
Track gain : -2.92 dB
Peak : 0.971313
CRC32 hash (test run) : D9C59EA2
CRC32 hash : D9C59EA2
CRC32 hash (skip zero) : 1A8C5603
AccurateRip signature : D0C083C0
->Track not present in AccurateRip database.
Statistics
Read error : 0
Skipped (treated as error) : 0
Edge jitter error (maybe fixed) : 0
Atom jitter error (maybe fixed) : 0
Drift error (maybe fixed) : 0
Dropped bytes error (maybe fixed) : 0
Duplicated bytes error (maybe fixed) : 0
Inconsistency in error sectors : 0
Track 08
Filename : /Users/olegbelov/Downloads/Kenny Garrett - Prisoner Of Love (1989)/08 - Peace For Dream.flac
Track gain : 1.18 dB
Peak : 0.564758
CRC32 hash (test run) : 5EFC1B39
CRC32 hash : 5EFC1B39
CRC32 hash (skip zero) : 943956C9
AccurateRip signature : C7CF6040
->Track not present in AccurateRip database.
Statistics
Read error : 0
Skipped (treated as error) : 0
Edge jitter error (maybe fixed) : 0
Atom jitter error (maybe fixed) : 0
Drift error (maybe fixed) : 0
Dropped bytes error (maybe fixed) : 0
Duplicated bytes error (maybe fixed) : 0
Inconsistency in error sectors : 0
Track 09
Filename : /Users/olegbelov/Downloads/Kenny Garrett - Prisoner Of Love (1989)/09 - Lift Ev'ry Voice And Sing.flac
Track gain : -0.55 dB
Peak : 0.999512
CRC32 hash (test run) : FF3E584D
CRC32 hash : FF3E584D
CRC32 hash (skip zero) : EC53FBC6
AccurateRip signature : 3B9D8321
->Track not present in AccurateRip database.
Statistics
Read error : 0
Skipped (treated as error) : 0
Edge jitter error (maybe fixed) : 0
Atom jitter error (maybe fixed) : 0
Drift error (maybe fixed) : 0
Dropped bytes error (maybe fixed) : 0
Duplicated bytes error (maybe fixed) : 0
Inconsistency in error sectors : 0
No errors occurred
End of status report
 
Содержание индексной карты (.CUE)
TITLE "Prisoner Of Love"
PERFORMER "Kenny Garrett"
REM GENRE "Jazz"
REM DATE "1989"
REM DISCID 6E0A1909
REM REPLAYGAIN_ALBUM_GAIN -2.77 dB
REM REPLAYGAIN_ALBUM_PEAK 1.000000
FILE "01 - May I Have This Dance?.flac" WAVE
TRACK 01 AUDIO
TITLE "May I Have This Dance?"
REM REPLAYGAIN_TRACK_GAIN -2.08 dB
REM REPLAYGAIN_TRACK_PEAK 0.945435
INDEX 01 00:00:00
FILE "02 - Blue Moon.flac" WAVE
TRACK 02 AUDIO
TITLE "Blue Moon"
REM REPLAYGAIN_TRACK_GAIN -1.77 dB
REM REPLAYGAIN_TRACK_PEAK 0.999969
INDEX 01 00:00:00
FILE "03 - Prisoner Of Love.flac" WAVE
TRACK 03 AUDIO
TITLE "Prisoner Of Love"
REM REPLAYGAIN_TRACK_GAIN -2.19 dB
REM REPLAYGAIN_TRACK_PEAK 0.999573
INDEX 01 00:00:00
FILE "04 - Put A Smile On Your Face.flac" WAVE
TRACK 04 AUDIO
TITLE "Put A Smile On Your Face"
REM REPLAYGAIN_TRACK_GAIN -2.52 dB
REM REPLAYGAIN_TRACK_PEAK 0.999969
INDEX 01 00:00:00
FILE "05 - Sayydah's Single File Groove.flac" WAVE
TRACK 05 AUDIO
TITLE "Sayydah's Single File Groove"
REM REPLAYGAIN_TRACK_GAIN -5.04 dB
REM REPLAYGAIN_TRACK_PEAK 1.000000
INDEX 01 00:00:00
FILE "06 - Big 'Ol Head.flac" WAVE
TRACK 06 AUDIO
TITLE "Big 'Ol Head"
REM REPLAYGAIN_TRACK_GAIN -3.77 dB
REM REPLAYGAIN_TRACK_PEAK 0.999969
INDEX 01 00:00:00
FILE "07 - Free Mandela.flac" WAVE
TRACK 07 AUDIO
TITLE "Free Mandela"
REM REPLAYGAIN_TRACK_GAIN -2.92 dB
REM REPLAYGAIN_TRACK_PEAK 0.971313
INDEX 01 00:00:00
FILE "08 - Peace For Dream.flac" WAVE
TRACK 08 AUDIO
TITLE "Peace For Dream"
REM REPLAYGAIN_TRACK_GAIN 1.18 dB
REM REPLAYGAIN_TRACK_PEAK 0.564758
INDEX 01 00:00:00
FILE "09 - Lift Ev'ry Voice And Sing.flac" WAVE
TRACK 09 AUDIO
TITLE "Lift Ev'ry Voice And Sing"
REM REPLAYGAIN_TRACK_GAIN -0.55 dB
REM REPLAYGAIN_TRACK_PEAK 0.999512
INDEX 01 00:00:00
 
Состав
Kenny Garrett - alto & soprano saxes,keyboards,synth bass,drums,percussion,whistle
Miles Davis - trumpet on tracks 6,7
Darryl Jones - bass
Ricky Wellman - drums
Rudy Bird - percussion
Marcus Miller - bass
Foley - lead bass
Mino Cinelu - percussion
Dennis Chambers - drums
Barrie Lee Hall,Jr. - trumpet
Muhammad Abdul Al-Khabyyr - trombone
Sayydah Garrett - clarinet
Charnett Moffett - bass
Mikel Dean, Mia Dean, Chananja Bryan, Akira Frierson, Myisha Hollaway, Eric Myers, Erin Myers, Mysheerah Durant,
Bonnie Bozeman, Katrina Anderson, Duane Thomas, Noel John, Cie Romeo, Ikeda Romeo, Akelier Soogrim - vocals on track 7
Приватный:
Да (DHT отключён)
Размер:
280.74 Мб (294,372,154 байт) » файлов: 16
Участники:
0 раздают, 0 качают (0 участников всего)
Внешние участники:
2 раздают, 1 качают (3 участников всего) [ Обновить ]
For power users only: no seeders - write to support@pro-jazz.com. Для power user: нет сидеров - пишите на support@pro-jazz.com.
10:15
111
Нет комментариев. Ваш будет первым!