Вы используете незарегистрированную версию компонента "Вкладки"!

Поиск

(contemporary jazz/experimental Big Band) Ninth+Lincoln - Ninth+Lincoln - 2008, FLAC (image+.cue) lossless

Треклист:
Ninth+Lincoln / Ninth+Lincoln
Жанр: contemporary jazz/experimental Big Band
Страна-производитель диска: USA
Год издания диска: 2008
Издатель (лейбл): Dazzle Records
Страна: USA
Аудио кодек: FLAC (*.flac)
Тип рипа: image+.cue
Битрейт аудио: lossless
Продолжительность: 58:26
Источник (релизер): собственный рип
Наличие сканов в содержимом раздачи: да
Треклист:
1. intro
2. your cent
3. giving full account
4. and you`it...
5. interlude I
6. music for prose
7. the wasp
8. aeroplane
9. interlude II
10. sketching restraint
 
Лог создания рипа
Exact Audio Copy V0.99 prebeta 5 from 4. May 2009
EAC extraction logfile from 8. December 2010, 10:42
Ninth & Lincoln / Ninth & Lincoln
Used drive : Optiarc DVD RW AD-7243S Adapter: 0 ID: 1
Read mode : Secure
Utilize accurate stream : Yes
Defeat audio cache : Yes
Make use of C2 pointers : No
Read offset correction : 48
Overread into Lead-In and Lead-Out : No
Fill up missing offset samples with silence : Yes
Delete leading and trailing silent blocks : No
Null samples used in CRC calculations : Yes
Used interface : Native Win32 interface for Win NT & 2000
Used output format : User Defined Encoder
Selected bitrate : 768 kBit/s
Quality : High
Add ID3 tag : No
Command line compressor : C:\Program Files\Exact Audio Copy\FLAC\FLAC.EXE
Additional command line options : -6 -V -T "ARTIST=%a" -T "TITLE=%t" -T "ALBUM=%g" -T "DATE=%y" -T "TRACKNUMBER=%n" -T "GENRE=%m" -T "COMMENT=%e" %s -o %d
TOC of the extracted CD
Track | Start | Length | Start sector | End sector
---------------------------------------------------------
1 | 0:00.00 | 0:21.10 | 0 | 1584
2 | 0:21.10 | 6:05.49 | 1585 | 29008
3 | 6:26.59 | 5:13.43 | 29009 | 52526
4 | 11:40.27 | 12:57.04 | 52527 | 110805
5 | 24:37.31 | 0:40.71 | 110806 | 113876
6 | 25:18.27 | 15:49.43 | 113877 | 185094
7 | 41:07.70 | 11:13.63 | 185095 | 235632
8 | 52:21.58 | 6:43.49 | 235633 | 265906
9 | 59:05.32 | 1:01.72 | 265907 | 270553
10 | 60:07.29 | 6:20.52 | 270554 | 299105
Range status and errors
Selected range
Filename C:\Documents and Settings\S\Мои документы\Torrent раздача\Ninth & Lincoln - Ninth & Lincoln.wav
Peak level 97.7 %
Range quality 99.9 %
Test CRC 433C2958
Copy CRC 433C2958
Copy OK
No errors occurred
AccurateRip summary
Track 1 not present in database
Track 2 not present in database
Track 3 not present in database
Track 4 not present in database
Track 5 not present in database
Track 6 not present in database
Track 7 not present in database
Track 8 not present in database
Track 9 not present in database
Track 10 not present in database
None of the tracks are present in the AccurateRip database
End of status report
 
Состав
tyler gilmore - comp., conductor
dave devine - guitar
greg harris - vibes
paul romaine - drums
art bouten - sax, flute, clarinet
wil swinder - sax, clarinet, comp.
peter sommer - sax, clarinet
dominic lalli - sax
mark harris - sax, bassclarinet
brad goode - trumpet, flugelhorn
dave rajewaki - trumpet, flugelhorn
robert murray - trumpet, flugelhorn
kevin whalen - trumpet, flugelhorn
tom ball - trombone
doug scarborough - trombone
rob borger - trombone
gary mayne - bass trombone, tuba
Другие раздачи
http://rutracker.org/forum/search.php?uid=17163016
По всем вопросам пишите личное сообщение пользователю M0p94ok.
06:31
202
Нет комментариев. Ваш будет первым!