Вы используете незарегистрированную версию компонента "Вкладки"!

Поиск

(Contemporary Jazz / World Fusion) Rhythmstick (CTI All Stars : Dizzy Gillespie, Charlie Haden, Randy Brecker, John Scofield, Jim Beard, Tito Puente, Flora Purim etc) - Rhythmstick (Band of The Bandleaders) - 1990, FLAC (image+.cue) lossless

(Contemporary Jazz / World Fusion) Rhythmstick (CTI All Stars : Dizzy Gillespie, Charlie Haden, Randy Brecker, John Scofield, Jim Beard, Tito Puente, Flora Purim etc) - Rhythmstick (Band of The Bandleaders) - 1990, FLAC (image+.cue) lossless
Треклист:
Rhythmstick (CTI All Stars) - Rhythmstick (Band of The Bandleaders)
Жанр: Contemporary Jazz / World Fusion
Страна-производитель диска: USA
Год издания диска: 1990
Издатель (лейбл): CTI Records (A Division of Creed Taylor, Inc)
Номер по каталогу: 847 199-2 (847 199-2)
Аудио кодек: FLAC (*.flac)
Тип рипа: image+.cue
Битрейт аудио: lossless
Продолжительность: 01:00:18
Источник (релизер): PCWhizzkid
Наличие сканов в содержимом раздачи: да
Треклист:
01. Michel Camilo // Caribe
02. Bob Berg // Friday Night At The Cadillac Club
03. Gilberto Gil & Wally Salomao // Quilombo
04. Charlie Parker // Barbados
05. Toninho Horta & Flora Purim // Waiting For Angela
06. Moacir Santos // Nana
07. Sigmund Romberg & Oscar Hammerstein II // Softly As In A Morning Sunrise
08. Enio Flavio Mol & Marcelo Ferreira // Colo De Rio
09. Benny Golson // Palisades In Blue
10. Salif Keita // Wamba
Recorded at Van Gelder Recording Studio, Engelwood Cliffs, New Jersey, June 19-21, 1989.
Credits:
Bass – Charlie Haden (tracks: 3, 4, 8)
Co-producer – Benny Golson
Drums – Airto (tracks: 3), Bernard Purdie (tracks: 2, 9), Marvin "Smitty" Smith (tracks: 1, 4, 6, 8, 10)
Electric Bass – Anthony Jackson (tracks: 1, 2, 6, 9, 10)
Electric Guitar – John Scofield (tracks: 1, 10), Robben Ford (tracks: 2)
Flugelhorn – Art Farmer (tracks: 4, 7, 8)
Guitar – Romero Lubambo (tracks: 3, 5, 6, 7, 8)
Organ – Jimmy McGriff (tracks: 2, 9)
Organ [Overdubbed] – Jim Beard (tracks: 2)
Percussion – Airto (tracks: 1, 3, 5, 6, 7, 8, 10), Tito Puente (tracks: 1, 10)
Percussion [Rhythmstick] – Dizzy Gillespie (tracks: 1, 10)
Piano – Hilton Ruiz (tracks: 1, 3)
Producer – Creed Taylor
Saxophone [Alto] – Phil Woods (tracks: 2, 3, 4, 6, 8, 9, 10)
Saxophone [Tenor] – Bob Berg (tracks: 1, 2, 3, 5, 6, 8, 9, 10)
Synthesizer – Jim Beard (tracks: 1, 5, 6, 8, 10)
Synthesizer [Bass] – Benny Golson (tracks: 1, 9)
Trumpet – Art Farmer (tracks: 1, 2, 3, 6, 8, 9, 10), Dizzy Gillespie (tracks: 1, 10), Jon Faddis (tracks: 2, 3, 6, 9, 10), Randy Brecker (tracks: 1, 2, 6, 10)
Vocals – Airto (tracks: 3), Amy Roslyn (tracks: 3), Diana Moreira (tracks: 3), Flora Purim (tracks: 3, 5, 6, 8, 10), Janice Pendarvis (tracks: 3)
 
Tracks & Credits
 
Detailed Tracklist & Credits
RHYTHMSTICK
Rhythmstick (Various Artists)
Englewood Cliffs, New Jersey: June 19-21, 1989
Dizzy Gillespie (tp,rhythmstick); Randy Brecker; Art Farmer (tp); Bob Berg (ts); Hilton Ruiz (p); John Scofield (el-g); Jim Beard (synth); Anthony Jackson (el-b); Benny Golson (synth b); Marvin "Smitty" Smith (d); Airto, Tito Puente (perc).
a. Caribe (Michel Camilo) - 6:51
Randy Brecker, Jon Faddis, Art Farmer (tp); Bob Berg (ts); Phil Woods (as); Jimmy McGriff (org); Jim Beard (overdubbed org); Robben Ford (el-g); Anthony Jackson (el-b); Bernard Purdie (d).
b. Friday Night At The Cadillac Club (Bob Berg) - 7:07
Jon Faddis, Art Farmer (tp); Bob Berg (ts); Phil Woods (as); Romero Lubambo (g); Charlie Haden (b); Airto (d,perc,vcl); Diana Moreira, Janice Pendarvis, Flora Purim, Amy Roslyn (vcl).
c. Quilombo (Gilberto Gil/Wally Salomao)- 5:35
Art Farmer (flhrn); Phil Woods (as); Hilton Ruiz (p); Charlie Haden (b); Marvin "Smitty" Smith (d).
d. Barbados (Charlie Parker) - 3:15
Bob Berg (ss); Jim Beard (synth); Romero Lubambo (g); Airto (perc); Flora Purim (vcl).
e. Waiting For Angela (Toninho Horta/Flora Purim) - 4:30
Randy Brecker, Jon Faddis, Art Farmer (tp); Bob Berg (ts); Phil Woods (as); Jim Beard (key); Romero Lubambo (g); Anthony Jackson (el-b); Marvin "Smitty" Smith (d); Airto (perc) Flora Purim (vcl).
f. Nana (Moacir Santos) - 6:05
Art Farmer (flhrn); Romero Lubambo (g); Airto (perc).
g. Softly As In A Morning Sunrise (Sigmund Romberg/Oscar Hammerstein II) - 3:34
Art Farmer (tp,flhrn); Bob Berg (ts); Phil Woods (as); Jim Beard (synth); Romero Lubambo (g); Charlie Haden (b); Marvin "Smitty" Smith (d); Airto (perc); Flora Purim (vcl).
h. Colo de Rio (Enio Flavio Mol/Marcelo Ferreira) - 5:34
Jon Faddis, Art Farmer (tp); Bob Berg (ts); Phil Woods (as); Jimmy McGriff (org solo); prob. Benny Golson (synth); Anthony Jackson (el-b); Bernard Purdie (d).
i. Palisades In Blue (Benny Golson) - 7:42
Dizzy Gillespie (tp, rhythmstick); Randy Brecker, Jon Faddis, Art Farmer (tp); Bob Berg (ts,ss); Phil Woods (as); Jim Beard (synth); John Scofield (el-g); Anthony Jackson (el-b); Marvin "Smitty" Smith (d); Airto, Tito Puente (perc); Flora Purim (vcl).
j. Wamba (Salif Keita) - 9:27
Note: (1) Jim Beard is credited as organist on "Friday Night At The Cadillac Club" on LP and CD issues of RHYTHMSTICK while Jimmy McGriff is seen playing organ in the video film of the recording. This is due to the fact that producer Creed Taylor was dissatisfied with McGriff's solo on this song and later overdubbed Beard's on top of it (detail courtesy of Arnaldo DeSouteiro). (2) Jim Beard indicates that some issues of this recording incorrectly credit (a) Hilton Ruiz (p) and Benny Golson (synth) on "Nana" (Beard plays all keyboards on this title) and (b) Beard (synth) on "Palisades In Blue" (the "fake organ" synthesizer - added due to Taylor's dissatisfaction with McGriff's performance outside of his solo on this title - is probably played by the song's composer, Benny Golson) (detail courtesy of Jim Beard).
Issues: a-d & f-j on CTI 10000, A*Vision 50254-3 [VHS], A*Vision 50254-6 [LD], Pioneer (Jap) PILJ-1007 [LD], Pioneer (Jap) PIVJ-1007 [VHS]. a-j on CTI 847 199-2 [CD], CTI 67221-2 [CD], Essential (E) ESJCD230 [CD], Membran (Ger) 232809, CTI (Ger) MA 70 01 477 [CD], CTI (Eu) 773785 [CD], CTI 1006-2 [CD]. a-j also on Past Perfect Silver Line (Ger) 205705-203 [CD] titled RHYTHMSTICK (as by Dizzy Gillespie). a-j also on Polydor Gold Disk (Jap) POCJ-1024 [CD], CTI (Jap) POCJ-2332 [CD] titled RHYTHMSTICK (as by the CTI All Stars).
Samplers: a also on CTI 67231-2 [CD] titled WINDOWS: THE CTI COLLECTION VOLUME ONE. a-d, i & j also on Modern Jazz Archives (Ger) 221960-306 titled PHIL WOODS (aka ANYTHING GOES). e also on Hommage (Ger) 7001822-HOM [CD] titled AFTER MIDNIGHT - JAZZ BALLADS. g also on CTI S1001 [CD] titled ABSOLUTE BRASS. j also on CTI 67232-2 [CD] titled WINDOWS: THE CTI COLLECTION VOLUME TWO.
Producer: Creed Taylor. Co-produced by Benny Golson.
Engineer: Rudy Van Gelder
Notes: Gene Lees
Jacket: Pete Turner (photography). Blake Taylor (art direction/design).
 
Лог создания рипа (EAC Log)
Exact Audio Copy V1.0 beta 1 from 15. November 2010
EAC extraction logfile from 19. April 2011, 10:01
Rhythmstick / Rhythmstick - Band of the Bandleaders
Used drive : HL-DT-STDVDRAM GH22NS40 Adapter: 1 ID: 0
Read mode : Secure
Utilize accurate stream : Yes
Defeat audio cache : Yes
Make use of C2 pointers : No
Read offset correction : 667
Overread into Lead-In and Lead-Out : No
Fill up missing offset samples with silence : Yes
Delete leading and trailing silent blocks : No
Null samples used in CRC calculations : Yes
Used interface : Native Win32 interface for Win NT & 2000
Used output format : User Defined Encoder
Selected bitrate : 768 kBit/s
Quality : High
Add ID3 tag : No
Command line compressor : C:\Program Files (x86)\Exact Audio Copy\FLAC\FLAC.EXE
Additional command line options : -6 -V -T "ARTIST=%a" -T "TITLE=%t" -T "ALBUM=%g" -T "DATE=%y" -T "TRACKNUMBER=%n" -T "GENRE=%m" -T "COMMENT=%e" %j--picture="%i"%j %s -o %d
TOC of the extracted CD
Track | Start | Length | Start sector | End sector
---------------------------------------------------------
1 | 0:00.33 | 6:53.25 | 33 | 31032
2 | 6:53.58 | 7:10.37 | 31033 | 63319
3 | 14:04.20 | 5:39.38 | 63320 | 88782
4 | 19:43.58 | 3:18.50 | 88783 | 103682
5 | 23:02.33 | 4:33.25 | 103683 | 124182
6 | 27:35.58 | 6:09.50 | 124183 | 151907
7 | 33:45.33 | 3:39.12 | 151908 | 168344
8 | 37:24.45 | 5:39.13 | 168345 | 193782
9 | 43:03.58 | 7:48.00 | 193783 | 228882
10 | 50:51.58 | 9:27.25 | 228883 | 271432
Range status and errors
Selected range
Filename T:\Rhythmstick - Rhythmstick ( Band of The Bandleaders ).wav
Peak level 99.5 %
Extraction speed 0.1 X
Range quality 100.0 %
Test CRC D8947AB1
Copy CRC D8947AB1
Copy OK
No errors occurred
AccurateRip summary
Track 1 not present in database
Track 2 not present in database
Track 3 not present in database
Track 4 not present in database
Track 5 not present in database
Track 6 not present in database
Track 7 not present in database
Track 8 not present in database
Track 9 not present in database
Track 10 not present in database
None of the tracks are present in the AccurateRip database
End of status report
==== Log checksum 432C04A980F7DD2BF8E65EBEA2CB586A604BE8EEE879085569D2734EE90DFFEF ====
 
Содержание индексной карты (.CUE)
REM GENRE Jazz
REM DATE 1990
REM DISCID 880E230A
REM COMMENT "ExactAudioCopy v1.0b1"
PERFORMER "Rhythmstick"
TITLE "Rhythmstick - Band of the Bandleaders"
FILE "Rhythmstick - Rhythmstick ( Band of The Bandleaders ).flac" WAVE
TRACK 01 AUDIO
TITLE "Caribe"
PERFORMER "Rhythmstick"
INDEX 00 00:00:00
INDEX 01 00:00:33
TRACK 02 AUDIO
TITLE "Friday Night at the Cadillac Club"
PERFORMER "Rhythmstick"
INDEX 00 06:51:33
INDEX 01 06:53:58
TRACK 03 AUDIO
TITLE "Quilombo"
PERFORMER "Rhythmstick"
INDEX 00 14:02:20
INDEX 01 14:04:20
TRACK 04 AUDIO
TITLE "Barbados"
PERFORMER "Rhythmstick"
INDEX 00 19:39:70
INDEX 01 19:43:58
TRACK 05 AUDIO
TITLE "Waiting for Angela"
PERFORMER "Rhythmstick"
INDEX 00 22:58:58
INDEX 01 23:02:33
TRACK 06 AUDIO
TITLE "Nana"
PERFORMER "Rhythmstick"
INDEX 00 27:33:08
INDEX 01 27:35:58
TRACK 07 AUDIO
TITLE "Softly as in a Morning Sunrise"
PERFORMER "Rhythmstick"
INDEX 00 33:40:45
INDEX 01 33:45:33
TRACK 08 AUDIO
TITLE "Colo de Rio"
PERFORMER "Rhythmstick"
INDEX 00 37:19:45
INDEX 01 37:24:45
TRACK 09 AUDIO
TITLE "Palisades in Blue"
PERFORMER "Rhythmstick"
INDEX 00 42:59:33
INDEX 01 43:03:58
TRACK 10 AUDIO
TITLE "Wamba"
PERFORMER "Rhythmstick"
INDEX 00 50:46:70
INDEX 01 50:51:58
 
Об альбоме (сборнике)
One of the best all-star sessions ever produced by the legendary Creed Taylor. RHYTHMSTICK is a salute to Dizzy Gillespie's impact on jazz with an amazing All-Star Jazz line-up. Rhythmstick is the name of his percussion instrument, made with a stick and bottle caps.
 
Состав
Personnel:
Benny Golson (arranger, synthesizer);
Flora Purim, Amy Roslyn, Janice Pendarvis, Diana Moreira (vocals);
Phil Woods (alto saxophone);
Bob Berg (tenor & soprano saxophones);
Dizzy Gillespie (trumpet, rhythmstick);
Art Farmer (trumpet, flugelhorn);
Randy Brecker, Jon Faddis (trumpet);
Hilton Ruiz (piano);
Jimmy McGriff (Hammond B-3 organ);
Jim Beard (synthesizer, Hammond B-3 organ);
John Scofield, Robert Lubambo, Robben Ford (guitar);
Charlie Haden (bass);
Anthony Jackson (electric bass);
Bernard Purdie, Marvin "Smitty" Smith (drums);
Tito Puente (percussion);
Airto (percussion, drums, vocals)
 
Back
 
CD
Престижная вещица !!!
Any questions - support@pro-jazz.com. Есть вопросы - support@pro-jazz.com
21:25
313
Нет комментариев. Ваш будет первым!