Поиск

(Contemporary Jazz / World Fusion) Perico Sambeat (Brad Mehldau, Kurt Rosenwinkel, Mark Turner, Mike Leonhart, Joe Martin, Enrique Morente, Jorge Rossy, Enric Canada, Guillermo McGill) - Ademuz - 1998, FLAC (tracks+.cue), lossless

(Contemporary Jazz / World Fusion) Perico Sambeat (Brad Mehldau, Kurt Rosenwinkel, Mark Turner, Mike Leonhart, Joe Martin, Enrique Morente, Jorge Rossy, Enric Canada, Guillermo McGill) - Ademuz - 1998, FLAC (tracks+.cue), lossless
Треклист:
Perico Sambeat - Ademuz
Жанр: Contemporary Jazz / World Fusion
Страна-производитель диска: Spain
Год издания диска: 1998
Издатель (лейбл): Fresh Sound New Talent
Номер по каталогу: FSNT 041
Аудиокодек: FLAC (*.flac)
Тип рипа: tracks+.cue
Битрейт аудио: lossless
Продолжительность: 00:55:53
Источник (релизер): what.cd / спасибо CmdrChesticle
Наличие сканов в содержимом раздачи: нет
Треклист:
1. A Free K (09:56)
2. Ademuz (08:33)
3. Tu Rostro Oculto (08:17)
4. Expedición (09:03)
5. La Noche de Lemuria (06:07)
6. Porta Do Ferro (07:17)
7. Barri de la Coma (06:22)
Toda la música escrita y arreglada por Perico Sambeat
Доп. информация:
Musicians:
Perico Sambeat - saxo alto, flauta, teclados
Brad Mehldau - piano, teclados
Kurt Rosenwinkel - guitarra
Mark Turner - saxo tenor
Mike Leonhart - trompeta
Joe Martin - contrabajo, bajo eléctrico
Enrique Morente - voz
Jorge Rossy - batería
Enric Canada - percusión
Guillermo McGill - cajón
Grabado en Tabalet Estudis (Alboraia, Valencia) en Agosto de 1995
Mezclado en Tabalet Estudis (Alboraia, Valencia) en Noviembre de 1995
Originalmente producido por Dahíz con la ayuda de Jorge Rossy
La portada es un Oleo de Ana Golobart
© 1998 Fresh Sound New Talent
Perico Sambeat Official Site
Perico Sambeat myspace.com
Perico Sambeat - Ademuz freshsoundrecords.com
Perico Sambeat - Ademuz allmusic.com
 
... photo ...
 
 
 
... review ...
Perico Sambeat, an overlooked Spanish altoist and composer, recorded this album in 1995 with the help of future superstars Brad Mehldau, Kurt Rosenwinkel, and Mark Turner. Michael Leonhart, the underrated trumpeter, is the session's third horn. In the rhythm section are Joe Martin on bass, Jordi Rossy* on drums, and both Guillermo McGill and Enric Canada on percussion. Enrique Morente contributes vocals on three tracks.
This is a fairly large ensemble, and the sounds on this record are, accordingly, huge. Sambeat's Latin jazz compositions present the listener with an unusually dramatic sweep, a breathtaking landscape of beautiful melodies, striking harmonic colors, churning, multi-layered rhythms, subtle dynamics, and brilliant solos. Morente's yearning, intense vocal performances lend an aura of heightened spiritual fervor. Overall, the first four tracks are the most ambitious – particularly "Ademuz," with its hard-hitting, quasi-fusion groove and keyboard, electric bass, and overdriven guitar textures, all of which give way to an acoustic ambience as the tune progresses. The remaining three tracks are a bit more conventional, particularly "Barri de la Coma," the closing Latin romp based on rhythm changes with a modified bridge. Sambeat's flute and Leonhart's muted trumpet are nice touches on the shout chorus.
* Jorge and Jordi Rossy are the same person. I listed him as Jorge because that's been common more recently, and there were already albums listed under that name.
http://en.wikipedia.org/wiki/Jorge_Rossy
David R. Adler ~ AMG
 
 
Лог создания рипа
X Lossless Decoder version 20110924 (136.3)
XLD extraction logfile from 2011-10-14 02:31:50 +0000
Perico Sambeat / Ademuz
Used drive : MATSHITA DVD-R   UJ-8A8 (revision HA13)
Ripper mode             : XLD Secure Ripper
Disable audio cache     : OK for the drive with a cache less than 1375KiB
Make use of C2 pointers : NO
Read offset correction  : 102
Max retry count         : 100
Gap status              : Analyzed, Appended (except HTOA)
TOC of the extracted CD
     Track |   Start  |  Length  | Start sector | End sector
    ---------------------------------------------------------
        1  | 00:00:00 | 09:56:57 |         0    |    44756
        2  | 09:56:57 | 08:33:10 |     44757    |    83241
        3  | 18:29:67 | 08:17:70 |     83242    |   120586
        4  | 26:47:62 | 09:03:60 |    120587    |   161371
        5  | 35:51:47 | 06:07:70 |    161372    |   188966
        6  | 41:59:42 | 07:17:48 |    188967    |   221789
        7  | 49:17:15 | 06:22:57 |    221790    |   250496
AccurateRip Summary
    Track 01 : OK (AR2, confidence 2)
    Track 02 : OK (AR2, confidence 2)
    Track 03 : OK (AR2, confidence 2)
    Track 04 : OK (AR2, confidence 2)
    Track 05 : OK (AR2, confidence 2)
    Track 06 : OK (AR2, confidence 2)
    Track 07 : OK (AR2, confidence 2)
        ->All tracks accurately ripped.
All Tracks
    Album gain             : -4.71 dB
    Peak                   : 0.976044
    Statistics
        Read error                           : 0
        Jitter error (maybe fixed)           : 0
        Retry sector count                   : 0
        Damaged sector count                 : 0
Track 01
    Filename : /Users/ianwolff/Desktop/at last/Perico Sambeat - Ademuz (1998) [FLAC]/01 A Free K.flac
    Pre-gap length : 00:02:00
    Track gain             : -4.67 dB
    Peak                   : 0.919830
    CRC32 hash (test run)  : 8A5BCAF1
    CRC32 hash             : 8A5BCAF1
    CRC32 hash (skip zero) : AD081EB0
    AccurateRip signature  : 3BA1A462
        ->Accurately ripped! (AR2, confidence 2)
    Statistics
        Read error                           : 0
        Jitter error (maybe fixed)           : 0
        Retry sector count                   : 0
        Damaged sector count                 : 0
Track 02
    Filename : /Users/ianwolff/Desktop/at last/Perico Sambeat - Ademuz (1998) [FLAC]/02 Ademuz.flac
    Pre-gap length : 00:04:02
    Track gain             : -5.45 dB
    Peak                   : 0.956299
    CRC32 hash (test run)  : 310F5BC1
    CRC32 hash             : 310F5BC1
    CRC32 hash (skip zero) : CB28B5E8
    AccurateRip signature  : F5D0285B
        ->Accurately ripped! (AR2, confidence 2)
    Statistics
        Read error                           : 0
        Jitter error (maybe fixed)           : 0
        Retry sector count                   : 0
        Damaged sector count                 : 0
Track 03
    Filename : /Users/ianwolff/Desktop/at last/Perico Sambeat - Ademuz (1998) [FLAC]/03 Tu Rostro Oculto.flac
    Pre-gap length : 00:04:72
    Track gain             : 0.36 dB
    Peak                   : 0.720490
    CRC32 hash (test run)  : 7CFC303F
    CRC32 hash             : 7CFC303F
    CRC32 hash (skip zero) : FFCF1867
    AccurateRip signature  : 5CE973E4
        ->Accurately ripped! (AR2, confidence 2)
    Statistics
        Read error                           : 0
        Jitter error (maybe fixed)           : 0
        Retry sector count                   : 0
        Damaged sector count                 : 0
Track 04
    Filename : /Users/ianwolff/Desktop/at last/Perico Sambeat - Ademuz (1998) [FLAC]/04 Expedición
n.flac
    Pre-gap length : 00:04:17
    Track gain             : -4.43 dB
    Peak                   : 0.976044
    CRC32 hash (test run)  : 43603BC3
    CRC32 hash             : 43603BC3
    CRC32 hash (skip zero) : E7A0741E
    AccurateRip signature  : B31CFE33
        ->Accurately ripped! (AR2, confidence 2)
    Statistics
        Read error                           : 0
        Jitter error (maybe fixed)           : 0
        Retry sector count                   : 0
        Damaged sector count                 : 0
Track 05
    Filename : /Users/ianwolff/Desktop/at last/Perico Sambeat - Ademuz (1998) [FLAC]/05 La Noche de Lemuria.flac
    Pre-gap length : 00:04:22
    Track gain             : -5.87 dB
    Peak                   : 0.959290
    CRC32 hash (test run)  : 3DF54008
    CRC32 hash             : 3DF54008
    CRC32 hash (skip zero) : 98CA9914
    AccurateRip signature  : 08B9101B
        ->Accurately ripped! (AR2, confidence 2)
    Statistics
        Read error                           : 0
        Jitter error (maybe fixed)           : 0
        Retry sector count                   : 0
        Damaged sector count                 : 0
Track 06
    Filename : /Users/ianwolff/Desktop/at last/Perico Sambeat - Ademuz (1998) [FLAC]/06 Porta do Ferro.flac
    Pre-gap length : 00:04:07
    Track gain             : -4.17 dB
    Peak                   : 0.926361
    CRC32 hash (test run)  : C36B5B06
    CRC32 hash             : C36B5B06
    CRC32 hash (skip zero) : D914FF3E
    AccurateRip signature  : 113ED2C8
        ->Accurately ripped! (AR2, confidence 2)
    Statistics
        Read error                           : 0
        Jitter error (maybe fixed)           : 0
        Retry sector count                   : 0
        Damaged sector count                 : 0
Track 07
    Filename : /Users/ianwolff/Desktop/at last/Perico Sambeat - Ademuz (1998) [FLAC]/07 Barri de La Coma.flac
    Pre-gap length : 00:03:30
    Track gain             : -4.65 dB
    Peak                   : 0.943939
    CRC32 hash (test run)  : 0044B158
    CRC32 hash             : 0044B158
    CRC32 hash (skip zero) : 20303E1E
    AccurateRip signature  : D2CA2EFF
        ->Accurately ripped! (AR2, confidence 2)
    Statistics
        Read error                           : 0
        Jitter error (maybe fixed)           : 0
        Retry sector count                   : 0
        Damaged sector count                 : 0
No errors occurred
End of status report
 
 
Содержание индексной карты (.CUE)
TITLE "Ademuz"
PERFORMER "Perico Sambeat"
REM GENRE "Jazz"
REM DATE "1998"
REM DISCNUMBER 1
REM TOTALDISCS 1
REM DISCID 5A0D0B07
REM REPLAYGAIN_ALBUM_GAIN -4.71 dB
REM REPLAYGAIN_ALBUM_PEAK 0.976044
FILE "01 A Free K.flac" WAVE
  TRACK 01 AUDIO
    TITLE "A Free K"
    REM REPLAYGAIN_TRACK_GAIN -4.67 dB
    REM REPLAYGAIN_TRACK_PEAK 0.919830
    INDEX 01 00:00:00
  TRACK 02 AUDIO
    TITLE "Ademuz"
    REM REPLAYGAIN_TRACK_GAIN -5.45 dB
    REM REPLAYGAIN_TRACK_PEAK 0.956299
    INDEX 00 09:52:55
FILE "02 Ademuz.flac" WAVE
    INDEX 01 00:00:00
  TRACK 03 AUDIO
    TITLE "Tu Rostro Oculto"
    REM REPLAYGAIN_TRACK_GAIN 0.36 dB
    REM REPLAYGAIN_TRACK_PEAK 0.720490
    INDEX 00 08:28:13
FILE "03 Tu Rostro Oculto.flac" WAVE
    INDEX 01 00:00:00
  TRACK 04 AUDIO
    TITLE "Expedicion"
    REM REPLAYGAIN_TRACK_GAIN -4.43 dB
    REM REPLAYGAIN_TRACK_PEAK 0.976044
    INDEX 00 08:13:53
FILE "04 Expedicion.flac" WAVE
    INDEX 01 00:00:00
  TRACK 05 AUDIO
    TITLE "La Noche de Lemuria"
    REM REPLAYGAIN_TRACK_GAIN -5.87 dB
    REM REPLAYGAIN_TRACK_PEAK 0.959290
    INDEX 00 08:59:38
FILE "05 La Noche de Lemuria.flac" WAVE
    INDEX 01 00:00:00
  TRACK 06 AUDIO
    TITLE "Porta do Ferro"
    REM REPLAYGAIN_TRACK_GAIN -4.17 dB
    REM REPLAYGAIN_TRACK_PEAK 0.926361
    INDEX 00 06:03:63
FILE "06 Porta do Ferro.flac" WAVE
    INDEX 01 00:00:00
  TRACK 07 AUDIO
    TITLE "Barri de La Coma"
    REM REPLAYGAIN_TRACK_GAIN -4.65 dB
    REM REPLAYGAIN_TRACK_PEAK 0.943939
    INDEX 00 07:14:18
FILE "07 Barri de La Coma.flac" WAVE
    INDEX 01 00:00:00
 
 
Audiochecker 2.0 beta (build 457)
AUDIOCHECKER v2.0 beta (build 457) - by Dester - opdester@freemail.hu
~~~~~~~~~~~~~~~~~~~~~~~~~~~~~~~~~~
Started at: понедельник, 27. 02. 2012. - 21:18.28
7 files found
1 -===- L:\rutracker.org_Audio CD\#_020_Perico Sambeat - Ademuz (1998)\Perico Sambeat - Ademuz (1998)\01 A Free K.flac
  Extracted successfully
  Conclusion: this track is CDDA with probability 100%
  Tempfile successfully deleted.
2 -===- L:\rutracker.org_Audio CD\#_020_Perico Sambeat - Ademuz (1998)\Perico Sambeat - Ademuz (1998)\02 Ademuz.flac
  Extracted successfully
  Conclusion: this track is CDDA with probability 100%
  Tempfile successfully deleted.
3 -===- L:\rutracker.org_Audio CD\#_020_Perico Sambeat - Ademuz (1998)\Perico Sambeat - Ademuz (1998)\03 Tu Rostro Oculto.flac
  Extracted successfully
  Conclusion: this track is CDDA with probability 100%
  Tempfile successfully deleted.
4 -===- L:\rutracker.org_Audio CD\#_020_Perico Sambeat - Ademuz (1998)\Perico Sambeat - Ademuz (1998)\04 Expedicion.flac
  Extracted successfully
  Conclusion: this track is CDDA with probability 100%
  Tempfile successfully deleted.
5 -===- L:\rutracker.org_Audio CD\#_020_Perico Sambeat - Ademuz (1998)\Perico Sambeat - Ademuz (1998)\05 La Noche de Lemuria.flac
  Extracted successfully
  Conclusion: this track is CDDA with probability 100%
  Tempfile successfully deleted.
6 -===- L:\rutracker.org_Audio CD\#_020_Perico Sambeat - Ademuz (1998)\Perico Sambeat - Ademuz (1998)\06 Porta do Ferro.flac
  Extracted successfully
  Conclusion: this track is CDDA with probability 100%
  Tempfile successfully deleted.
7 -===- L:\rutracker.org_Audio CD\#_020_Perico Sambeat - Ademuz (1998)\Perico Sambeat - Ademuz (1998)\07 Barri de La Coma.flac
  Extracted successfully
  Conclusion: this track is CDDA with probability 100%
  Tempfile successfully deleted.
Finished at: понедельник, 27. 02. 2012. - 21:24.36 (operation time: 0:06.07)
... релизы с участием MARK TURNER на трекере ...
Download available for power users only.
21:28
433
Нет комментариев. Ваш будет первым!