Поиск

(Contemporary Jazz, World Fusion) Egberto Gismonti & Academia De Danзas - Sanfona (ECM,2 CD) - 1981, APE (image+.cue), lossless

(Contemporary Jazz, World Fusion) Egberto Gismonti & Academia De Danзas - Sanfona (ECM,2 CD) - 1981, APE (image+.cue), lossless
Треклист:
Egberto Gismonti & Academia De Danзas - Sanfona (ECM,2 CD)
Жанр: Contemporary Jazz, World Fusion
Год выпуска диска: 1981
Производитель диска: Germany
Аудио кодек: APE
Тип рипа: image+.cue
Битрейт аудио: lossless
Продолжительность: 50:54 + 45:11
Трэклист:
Disk 1 :
01-Marcatu (8:23)
02-Io Anos (7:33)
03-Frevo (8:11)
04-Loro (5:33)
05-Em Familia-Sanfona-Dancas Dos Pes-Eterna (21:09)
Disk 2 :
01-De Repente (16:07)
02-Vale Do Eco (7:46)
03-Cavaquinho (7:59)
04-12 de Fevreiro (8:09)
05-Carta de Amor (5:06)
Доп. информация: Egberto Gismonti - piano, 10 string guitar, super 8 guitar, indian organ, voice
Mauro Senise - soprano & alto saxophones, flute
Zeka Assumpcao - bass
Nene - drums, percussion
 
Отчёт EAC диск 1
Exact Audio Copy V0.99 prebeta 4 from 23. January 2008
Отчёт EAC об извлечении, выполненном 16. февраля 2009, 16:51
Egberto Gismonti & Academia De Danзas / Sanfona (Disc 1)
Дисковод: _NEC DVD_RW ND-3550A Adapter: 1 ID: 0
Режим чтения : Достоверность
Использование точного потока : Да
Отключение кэша аудио : Да
Использование указателей C2 : Нет
Коррекция смещения при чтении : 48
Способность читать области Lead-in и Lead-out : Нет
Заполнение пропущенных сэмплов тишиной : Да
Удаление блоков с тишиной в начале и конце : Нет
При вычислениях CRC использовались нулевые сэмплы : Да
Интерфейс : Встроенный Win32-интерфейс для Win NT/2000
Выходной формат : Внутренние WAV-операции
Формат сэмплов : 44.100 Гц; 16 бит; стерео
TOC извлечённого CD
Трек | Старт | Длительность | Начальный сектор | Конечный сектор
---------------------------------------------------------------------
1 | 0:00.32 | 8:24.25 | 32 | 37856
2 | 8:24.57 | 7:33.50 | 37857 | 71881
3 | 15:58.32 | 8:11.73 | 71882 | 108779
4 | 24:10.30 | 5:34.22 | 108780 | 133851
5 | 29:44.52 | 21:10.18 | 133852 | 229119
Характеристики диапазона извлечения и сообщения об ошибках
Выбранный диапазон
Имя файла E:\001-torrent\Egberto Gismonti & Academia De Danзas - Sanfona (Disc 1)\Egberto Gismonti & Academia De Danзas - Sanfona (Disc 1).wav
Пиковый уровень 86.6 %
Качество диапазона 100.0 %
CRC копии D75220E6
Копирование... OK
Ошибок не произошло
Конец отчёта
 
Отчёт EAC диск 2
Exact Audio Copy V0.99 prebeta 4 from 23. January 2008
Отчёт EAC об извлечении, выполненном 16. февраля 2009, 17:03
Egberto Gismonti & Academia De Danзas / Sanfona (Disc 2)
Дисковод: _NEC DVD_RW ND-3550A Adapter: 1 ID: 0
Режим чтения : Достоверность
Использование точного потока : Да
Отключение кэша аудио : Да
Использование указателей C2 : Нет
Коррекция смещения при чтении : 48
Способность читать области Lead-in и Lead-out : Нет
Заполнение пропущенных сэмплов тишиной : Да
Удаление блоков с тишиной в начале и конце : Нет
При вычислениях CRC использовались нулевые сэмплы : Да
Интерфейс : Встроенный Win32-интерфейс для Win NT/2000
Выходной формат : Внутренние WAV-операции
Формат сэмплов : 44.100 Гц; 16 бит; стерео
TOC извлечённого CD
Трек | Старт | Длительность | Начальный сектор | Конечный сектор
---------------------------------------------------------------------
1 | 0:00.33 | 16:07.72 | 33 | 72629
2 | 16:08.30 | 7:46.50 | 72630 | 107629
3 | 23:55.05 | 7:59.70 | 107630 | 143624
4 | 31:55.00 | 8:09.43 | 143625 | 180342
5 | 40:04.43 | 5:06.45 | 180343 | 203337
Характеристики диапазона извлечения и сообщения об ошибках
Выбранный диапазон
Имя файла E:\001-torrent\Egberto Gismonti & Academia De Danзas - Sanfona (Disc 1)\Egberto Gismonti & Academia De Danзas - Sanfona (Disc 2).wav
Пиковый уровень 85.5 %
Качество диапазона 99.9 %
CRC копии 19324451
Копирование... OK
Ошибок не произошло
Конец отчёта
Download available for power users only.
04:52
358
Нет комментариев. Ваш будет первым!