Вы используете незарегистрированную версию компонента "Вкладки"!

Поиск

(Contemporary Jazz, World, Fusion) [CD] Ibrahim Maalouf - Illusions - 2013, FLAC (tracks+.cue), lossless

(Contemporary Jazz, World, Fusion) [CD] Ibrahim Maalouf - Illusions - 2013, FLAC (tracks+.cue), lossless
Треклист:
Ibrahim Maalouf - Illusions
Жанр: Contemporary Jazz, World, Fusion
Носитель: CD
Год издания: 2013
Издатель (лейбл): Mi'ster Productions
Номер по каталогу: IBM7
Аудиокодек: FLAC (*.flac)
Тип рипа: tracks+.cue
Битрейт аудио: lossless
Продолжительность: 42:27
Rip by dtromp
Наличие сканов в содержимом раздачи: да
Треклист:
01. Illusions (3:38)
02. Conspiracy Generation (8:56)
03. InPRESSI (4:08)
04. Nomade Slang (6:05)
05. Busy (10:23)
06. If You Wanna Be A Woman (6:42)
07. Unfaithful (4:26)
08. True Sorry (4:51)
09. Illusion (3:20)
Personnel:
Ibrahim Maalouf - trumpet, compositions
Yann Martin - lead trumpet
Youenn Le Cam - 1/4 tone trumpet, flute, bagpipe
Martin Saccardy - trumpet
François Delporte - electric guitar
Laurent David - electric bass
Frank Woeste - keyboard (Fender Rhodes)
Xavier Rogé - drums
 
 
Лог создания рипа
Exact Audio Copy V1.0 beta 3 from 29. August 2011
EAC extraction logfile from 30. March 2014, 22:00
Ibrahim Maalouf / Illusions
Used drive : PLEXTOR DVDR PX-860A Adapter: 0 ID: 0
Read mode : Secure
Utilize accurate stream : Yes
Defeat audio cache : Yes
Make use of C2 pointers : No
Read offset correction : 96
Overread into Lead-In and Lead-Out : No
Fill up missing offset samples with silence : Yes
Delete leading and trailing silent blocks : No
Null samples used in CRC calculations : Yes
Used interface : Native Win32 interface for Win NT & 2000
Gap handling : Appended to previous track
Used output format : User Defined Encoder
Selected bitrate : 1024 kBit/s
Quality : High
Add ID3 tag : No
Command line compressor : C:\Program Files\Exact Audio Copy\Flac\flac.exe
Additional command line options : -8 -V -T "ARTIST=%artist%" -T "TITLE=%title%" -T "ALBUM=%albumtitle%" -T "DATE=%year%" -T "TRACKNUMBER=%tracknr%" -T "TOTALTRACKS=%numtracks%" -T "GENRE=%genre%" -T "ALBUMARTIST=%albumartist%" -T "ALBUM ARTIST=%albumartist%" -T "DISCNUMBER=%cdnumber%" -T "TOTALDISCS=%totalcds%" -T "COMMENT=EAC Secure Mode, Test & Copy, AccurateRip, FLAC -8" %source%
TOC of the extracted CD
Track | Start | Length | Start sector | End sector
---------------------------------------------------------
1 | 0:00.00 | 3:37.55 | 0 | 16329
2 | 3:37.55 | 8:56.20 | 16330 | 56549
3 | 12:34.00 | 4:08.00 | 56550 | 75149
4 | 16:42.00 | 6:04.38 | 75150 | 102487
5 | 22:46.38 | 10:22.63 | 102488 | 149200
6 | 33:09.26 | 6:41.45 | 149201 | 179320
7 | 39:50.71 | 4:25.55 | 179321 | 199250
8 | 44:16.51 | 4:51.22 | 199251 | 221097
9 | 49:07.73 | 3:19.38 | 221098 | 236060
Track 1
Filename O:\DL\Ibrahim Maalouf - Illusions (2013) [FLAC]\01 - Illusions.wav
Pre-gap length 0:00:02.00
Peak level 97.7 %
Extraction speed 4.4 X
Track quality 100.0 %
Test CRC 0B68CDC3
Copy CRC 0B68CDC3
Accurately ripped (confidence 9) [613EBA36] (AR v2)
Copy OK
Track 2
Filename O:\DL\Ibrahim Maalouf - Illusions (2013) [FLAC]\02 - Conspiracy generation.wav
Peak level 97.7 %
Extraction speed 5.6 X
Track quality 100.0 %
Test CRC 32B9C238
Copy CRC 32B9C238
Accurately ripped (confidence 9) [4227CF84] (AR v2)
Copy OK
Track 3
Filename O:\DL\Ibrahim Maalouf - Illusions (2013) [FLAC]\03 - InPRESSI.wav
Peak level 97.7 %
Extraction speed 5.1 X
Track quality 99.9 %
Test CRC 0703AAB7
Copy CRC 0703AAB7
Accurately ripped (confidence 9) [30CED1EC] (AR v2)
Copy OK
Track 4
Filename O:\DL\Ibrahim Maalouf - Illusions (2013) [FLAC]\04 - Nomade slang.wav
Peak level 97.7 %
Extraction speed 6.0 X
Track quality 99.9 %
Test CRC 46F89357
Copy CRC 46F89357
Accurately ripped (confidence 9) [2104CE97] (AR v2)
Copy OK
Track 5
Filename O:\DL\Ibrahim Maalouf - Illusions (2013) [FLAC]\05 - Busy.wav
Peak level 97.7 %
Extraction speed 7.0 X
Track quality 99.9 %
Test CRC 2EA10237
Copy CRC 2EA10237
Accurately ripped (confidence 9) [89A76A32] (AR v2)
Copy OK
Track 6
Filename O:\DL\Ibrahim Maalouf - Illusions (2013) [FLAC]\06 - If you wanna be a woman.wav
Peak level 97.7 %
Extraction speed 7.7 X
Track quality 100.0 %
Test CRC 2B33AC31
Copy CRC 2B33AC31
Accurately ripped (confidence 9) [D351B2B0] (AR v2)
Copy OK
Track 7
Filename O:\DL\Ibrahim Maalouf - Illusions (2013) [FLAC]\07 - Unfaithful.wav
Peak level 97.7 %
Extraction speed 7.7 X
Track quality 100.0 %
Test CRC FC6757FE
Copy CRC FC6757FE
Accurately ripped (confidence 9) [84109DCA] (AR v2)
Copy OK
Track 8
Filename O:\DL\Ibrahim Maalouf - Illusions (2013) [FLAC]\08 - True sorry.wav
Peak level 97.7 %
Extraction speed 8.0 X
Track quality 100.0 %
Test CRC D31D2EC7
Copy CRC D31D2EC7
Accurately ripped (confidence 9) [1C3EDF24] (AR v2)
Copy OK
Track 9
Filename O:\DL\Ibrahim Maalouf - Illusions (2013) [FLAC]\09 - Illusion.wav
Peak level 97.7 %
Extraction speed 7.8 X
Track quality 100.0 %
Test CRC F367F5C0
Copy CRC F367F5C0
Accurately ripped (confidence 9) [D0A33832] (AR v2)
Copy OK
All tracks accurately ripped
No errors occurred
End of status report
---- CUETools DB Plugin V2.1.3
[CTDB TOCID: vKSvocSADZ71pkwhePTKrL6pFu8-] found, Submit result: vKSvocSADZ71pkwhePTKrL6pFu8- has been confirmed
[13aced01] (17/19) Accurately ripped
[b39148a9] (01/19) No match
[b6e8e421] (01/19) No match
==== Log checksum 5586CAF961201D09B065F6DF04E1847A7F5D66F4AF1325078C0BD00684CF7B68 ====
 
Содержание индексной карты (.CUE)
REM GENRE Jazz
REM DATE 2013
REM DISCID 880C4B09
REM COMMENT "ExactAudioCopy v1.0b3"
PERFORMER "Ibrahim Maalouf"
TITLE "Illusions"
FILE "01 - Illusions.flac" WAVE
TRACK 01 AUDIO
TITLE "Illusions"
PERFORMER "Ibrahim Maalouf"
INDEX 01 00:00:00
FILE "02 - Conspiracy Generation.flac" WAVE
TRACK 02 AUDIO
TITLE "Conspiracy Generation"
PERFORMER "Ibrahim Maalouf"
INDEX 01 00:00:00
FILE "03 - InPRESSI.flac" WAVE
TRACK 03 AUDIO
TITLE "InPRESSI"
PERFORMER "Ibrahim Maalouf"
INDEX 01 00:00:00
FILE "04 - Nomade Slang.flac" WAVE
TRACK 04 AUDIO
TITLE "Nomade Slang"
PERFORMER "Ibrahim Maalouf"
INDEX 01 00:00:00
FILE "05 - Busy.flac" WAVE
TRACK 05 AUDIO
TITLE "Busy"
PERFORMER "Ibrahim Maalouf"
INDEX 01 00:00:00
FILE "06 - If You Wanna Be A Woman.flac" WAVE
TRACK 06 AUDIO
TITLE "If You Wanna Be A Woman"
PERFORMER "Ibrahim Maalouf"
INDEX 01 00:00:00
FILE "07 - Unfaithful.flac" WAVE
TRACK 07 AUDIO
TITLE "Unfaithful"
PERFORMER "Ibrahim Maalouf"
INDEX 01 00:00:00
FILE "08 - True Sorry.flac" WAVE
TRACK 08 AUDIO
TITLE "True Sorry"
PERFORMER "Ibrahim Maalouf"
INDEX 01 00:00:00
FILE "09 - Illusion.flac" WAVE
TRACK 09 AUDIO
TITLE "Illusion"
PERFORMER "Ibrahim Maalouf"
INDEX 01 00:00:00
Any questions - support@pro-jazz.com.
Есть вопросы - support@pro-jazz.com
14:55
329
Нет комментариев. Ваш будет первым!