Поиск

(Contemporary Jazz, World Fusion) [CD] Ibrahim Maalouf - 10 ans de live! - 2016, FLAC (tracks+.cue), lossless

(Contemporary Jazz, World Fusion) [CD] Ibrahim Maalouf - 10 ans de live! - 2016, FLAC (tracks+.cue), lossless
Треклист:
Ibrahim Maalouf - 10 ans de live!
Жанр: Contemporary Jazz, World Fusion
Носитель: CD
Страна-производитель диска (релиза): Франция
Год издания: 2016
Издатель (лейбл): Mi'ster Productions
Номер по каталогу: IBM15 570 8213
Аудиокодек: FLAC (*.flac)
Тип рипа: tracks+.cue
Битрейт аудио: lossless
Продолжительность: 67:57
Источник (релизер): dareme7
Наличие сканов в содержимом раздачи: сетевые
Треклист:
01. Red & Black Light (Maalouf) - 10:59
02. La Javanaise (avec Juliette Greco) (Gainsbourg) - 5:46
03. Will Soon Be a Woman (Maalouf) - 5:16
04. Nomade Slang (Maalouf) - 15:01
05. Intro True Sorry (avec La Maitrise de Radio France) (Maalouf) - 4:56
06. True Sorry (Maalouf) - 5:14
07. Ya Ha La (Maalouf) - 5:04
08. Your Soul (Maalouf) - 2:24
09. Beirut (Maalouf) - 13:17
 
Лог создания рипа
Exact Audio Copy V1.3 from 2. September 2016
EAC extraction logfile from 16. September 2017, 20:32
Ibrahim Maalouf / 10 ans de live !
Used drive : ATAPI DVD A DH16AASH Adapter: 1 ID: 0
Read mode : Secure
Utilize accurate stream : Yes
Defeat audio cache : Yes
Make use of C2 pointers : No
Read offset correction : 6
Overread into Lead-In and Lead-Out : No
Fill up missing offset samples with silence : Yes
Delete leading and trailing silent blocks : No
Null samples used in CRC calculations : Yes
Used interface : Native Win32 interface for Win NT & 2000
Gap handling : Appended to previous track
Used output format : User Defined Encoder
Selected bitrate : 1024 kBit/s
Quality : High
Add ID3 tag : No
Command line compressor : C:\Program Files (x86)\Exact Audio Copy\Flac\flac.exe
Additional command line options : -8 -e -p -V -T "ARTIST=%artist%" -T "TITLE=%title%" -T "ALBUM=%albumtitle%" -T "DATE=%year%" -T "TRACKNUMBER=%tracknr%" -T "GENRE=%genre%" -T "PERFORMER=%albuminterpret%" -T "COMPOSER=%composer%" %haslyrics%--tag-from-file=LYRICS="%lyricsfile%"%haslyrics% -T "ALBUMARTIST=%albumartist%" -T "DISCNUMBER=%cdnumber%" -T "TOTALDISCS=%totalcds%" -T "TOTALTRACKS=%numtracks%" -T "COMMENT=%comment%" %source% -o %dest%
TOC of the extracted CD
Track | Start | Length | Start sector | End sector
---------------------------------------------------------
1 | 0:00.00 | 10:59.00 | 0 | 49424
2 | 10:59.00 | 5:46.00 | 49425 | 75374
3 | 16:45.00 | 5:16.00 | 75375 | 99074
4 | 22:01.00 | 15:01.00 | 99075 | 166649
5 | 37:02.00 | 4:56.00 | 166650 | 188849
6 | 41:58.00 | 5:14.00 | 188850 | 212399
7 | 47:12.00 | 5:04.00 | 212400 | 235199
8 | 52:16.00 | 2:24.20 | 235200 | 246019
9 | 54:40.20 | 13:16.55 | 246020 | 305774
Track 1
Filename C:\Ibrahim Maalouf - 10 ans de live ! (FLAC)\01 - Ibrahim Maalouf - Red & Black Light.wav
Pre-gap length 0:00:02.00
Peak level 95.2 %
Extraction speed 1.1 X
Track quality 99.9 %
Test CRC F4EA823D
Copy CRC F4EA823D
Accurately ripped (confidence 24) [141A19C9] (AR v2)
Copy OK
Track 2
Filename C:\Ibrahim Maalouf - 10 ans de live ! (FLAC)\02 - Ibrahim Maalouf et Juliette Gréco - La Javanaise en duo avec Juliette Gréco.wav
Pre-gap length 0:00:00.74
Peak level 76.5 %
Extraction speed 1.4 X
Track quality 100.0 %
Test CRC 44C5DB90
Copy CRC 44C5DB90
Accurately ripped (confidence 24) [49780185] (AR v2)
Copy OK
Track 3
Filename C:\Ibrahim Maalouf - 10 ans de live ! (FLAC)\03 - Ibrahim Maalouf - Will Soon Be A Woman.wav
Pre-gap length 0:00:01.74
Peak level 93.0 %
Extraction speed 1.5 X
Track quality 100.0 %
Test CRC 341668DA
Copy CRC 341668DA
Accurately ripped (confidence 24) [F02C99F6] (AR v2)
Copy OK
Track 4
Filename C:\Ibrahim Maalouf - 10 ans de live ! (FLAC)\04 - Ibrahim Maalouf - Nomade Slang.wav
Pre-gap length 0:00:01.74
Peak level 93.5 %
Extraction speed 1.9 X
Track quality 100.0 %
Test CRC E8145C9A
Copy CRC E8145C9A
Accurately ripped (confidence 23) [7E87661E] (AR v2)
Copy OK
Track 5
Filename C:\Ibrahim Maalouf - 10 ans de live ! (FLAC)\05 - Ibrahim Maalouf et Maitrise Radio France - Intro True Sorry.wav
Pre-gap length 0:00:05.74
Peak level 59.9 %
Extraction speed 1.9 X
Track quality 100.0 %
Test CRC 18E0FD28
Copy CRC 18E0FD28
Accurately ripped (confidence 24) [D3F3C577] (AR v2)
Copy OK
Track 6
Filename C:\Ibrahim Maalouf - 10 ans de live ! (FLAC)\06 - Ibrahim Maalouf - True Sorry.wav
Peak level 93.5 %
Extraction speed 1.6 X
Track quality 99.9 %
Test CRC 3F211743
Copy CRC 3F211743
Accurately ripped (confidence 23) [156B56AD] (AR v2)
Copy OK
Track 7
Filename C:\Ibrahim Maalouf - 10 ans de live ! (FLAC)\07 - Ibrahim Maalouf - Ya Ha La.wav
Pre-gap length 0:00:02.74
Peak level 93.6 %
Extraction speed 2.1 X
Track quality 100.0 %
Test CRC AB8CBC92
Copy CRC AB8CBC92
Accurately ripped (confidence 24) [9F82FC71] (AR v2)
Copy OK
Track 8
Filename C:\Ibrahim Maalouf - 10 ans de live ! (FLAC)\08 - Ibrahim Maalouf - Your Soul.wav
Pre-gap length 0:00:02.74
Peak level 63.8 %
Extraction speed 1.9 X
Track quality 100.0 %
Test CRC 5F9249E7
Copy CRC 5F9249E7
Accurately ripped (confidence 24) [C3A2E845] (AR v2)
Copy OK
Track 9
Filename C:\Ibrahim Maalouf - 10 ans de live ! (FLAC)\09 - Ibrahim Maalouf - Beirut.wav
Peak level 93.5 %
Extraction speed 2.4 X
Track quality 100.0 %
Test CRC 523C130E
Copy CRC 523C130E
Accurately ripped (confidence 24) [33621112] (AR v2)
Copy OK
All tracks accurately ripped
No errors occurred
End of status report
---- CUETools DB Plugin V2.1.6
[CTDB TOCID: y9FS0G8Pr4mSv4yUHN1VVimUuQY-] found
Submit result: y9FS0G8Pr4mSv4yUHN1VVimUuQY- has been confirmed
Track | CTDB Status
1 | (149/149) Accurately ripped
2 | (148/149) Accurately ripped
3 | (149/149) Accurately ripped
4 | (147/149) Accurately ripped
5 | (147/149) Accurately ripped
6 | (148/149) Accurately ripped
7 | (148/149) Accurately ripped
8 | (149/149) Accurately ripped
9 | (144/149) Accurately ripped
==== Log checksum 0D65AE6F1696B11FCBCC4B5B80EC430DCB7CC5D0267DD3E39F0FDC184740B08C ====
 
Содержание индексной карты (.CUE)
REM GENRE Jazz
REM DATE 2016
REM DISCID 620FED09
REM COMMENT "ExactAudioCopy v1.3"
PERFORMER "Ibrahim Maalouf"
TITLE "10 ans de live!"
FILE "01 - Red & Black Light.wav" WAVE
TRACK 01 AUDIO
TITLE "Red & Black Light"
PERFORMER "Ibrahim Maalouf"
INDEX 01 00:00:00
TRACK 02 AUDIO
TITLE "La Javanaise (avec Juliette Greco)"
PERFORMER "Ibrahim Maalouf"
INDEX 00 10:58:01
FILE "02 - La Javanaise (avec Juliette Greco).wav" WAVE
INDEX 01 00:00:00
TRACK 03 AUDIO
TITLE "Will Soon Be a Woman"
PERFORMER "Ibrahim Maalouf"
INDEX 00 05:44:01
FILE "03 - Will Soon Be a Woman.wav" WAVE
INDEX 01 00:00:00
TRACK 04 AUDIO
TITLE "Nomade Slang"
PERFORMER "Ibrahim Maalouf"
INDEX 00 05:14:01
FILE "04 - Nomade Slang.wav" WAVE
INDEX 01 00:00:00
TRACK 05 AUDIO
TITLE "Intro True Sorry (avec La Maitrise de Radio France)"
PERFORMER "Ibrahim Maalouf"
INDEX 00 14:55:01
FILE "05 - Intro True Sorry (avec La Maitrise de Radio France).wav" WAVE
INDEX 01 00:00:00
FILE "06 - True Sorry.wav" WAVE
TRACK 06 AUDIO
TITLE "True Sorry"
PERFORMER "Ibrahim Maalouf"
INDEX 01 00:00:00
TRACK 07 AUDIO
TITLE "Ya Ha La"
PERFORMER "Ibrahim Maalouf"
INDEX 00 05:11:01
FILE "07 - Ya Ha La.wav" WAVE
INDEX 01 00:00:00
TRACK 08 AUDIO
TITLE "Your Soul"
PERFORMER "Ibrahim Maalouf"
INDEX 00 05:01:01
FILE "08 - Your Soul.wav" WAVE
INDEX 01 00:00:00
FILE "09 - Beirut.wav" WAVE
TRACK 09 AUDIO
TITLE "Beirut"
PERFORMER "Ibrahim Maalouf"
INDEX 01 00:00:00
 
Отчет CUETools
[CUETools log; Date: 17.09.2017 1:08:27; Version: 2.1.5]
[CTDB TOCID: y9FS0G8Pr4mSv4yUHN1VVimUuQY-] found.
Track | CTDB Status
1 | (150/150) Accurately ripped
2 | (149/150) Accurately ripped
3 | (150/150) Accurately ripped
4 | (148/150) Accurately ripped
5 | (148/150) Accurately ripped
6 | (149/150) Accurately ripped
7 | (149/150) Accurately ripped
8 | (150/150) Accurately ripped
9 | (145/150) Accurately ripped
[AccurateRip ID: 00181712-00acd9d4-620fed09] found.
Track [ CRC | V2 ] Status
01 [d853b4c0|141a19c9] (00+24/36) Accurately ripped
02 [a3224a48|49780185] (00+24/35) Accurately ripped
03 [7b529550|f02c99f6] (00+24/35) Accurately ripped
04 [de67624f|7e87661e] (00+23/34) Accurately ripped
05 [db9fc5ea|d3f3c577] (00+24/36) Accurately ripped
06 [2ffef095|156b56ad] (00+23/35) Accurately ripped
07 [ee3b4fdf|9f82fc71] (00+24/36) Accurately ripped
08 [d4208c33|c3a2e845] (00+24/35) Accurately ripped
09 [3349e78d|33621112] (00+24/35) Accurately ripped
Offsetted by 6:
01 [6ca79247] (00/36) No match (V2 was not tested)
02 [300aa192] (00/35) No match (V2 was not tested)
03 [29e4d1f1] (00/35) No match (V2 was not tested)
04 [5aac5ec7] (00/34) No match (V2 was not tested)
05 [08ade0d0] (00/36) No match (V2 was not tested)
06 [1ee95d65] (00/35) No match (V2 was not tested)
07 [94de8131] (00/36) No match (V2 was not tested)
08 [523d693b] (00/35) No match (V2 was not tested)
09 [35c51e44] (00/35) No match (V2 was not tested)
Track Peak [ CRC32 ] [W/O NULL] [ LOG ]
-- 95,2 [8BA43CD7] [224292AE]
01 95,2 [F4EA823D] [BBA22378] CRC32
02 76,5 [44C5DB90] [BFABFEC5] CRC32
03 93,0 [341668DA] [2D74CF9B] CRC32
04 93,5 [E8145C9A] [895AF9C7] CRC32
05 59,9 [18E0FD28] [B8210867] CRC32
06 93,5 [3F211743] [679CA850] CRC32
07 93,6 [AB8CBC92] [D7A000CA] CRC32
08 63,8 [5F9249E7] [ABB86DD8] CRC32
09 93,5 [523C130E] [A56EC330] CRC32
По всем вопросам пишите личное сообщение пользователю M0p94ok.
01:25
409
Нет комментариев. Ваш будет первым!