Вы используете незарегистрированную версию компонента "Вкладки"!

Поиск

(Contemporary Jazz) Wayne Horvitz - Monologue - Twenty Compositions for Dance - 1997, FLAC (image+.cue), lossless

Треклист:
Wayne Horvitz / Monologue - Twenty Compositions for Dance
Жанр: Contemporary Jazz
Страна-производитель диска: US
Год издания диска: 1997
Издатель (лейбл): Cavity Search
Номер по каталогу: CSR 33
Страна: US
Аудиокодек: FLAC (*.flac)
Тип рипа: image+.cue
Битрейт аудио: lossless
Продолжительность: 55:00
Источник (релизер): собственный рип
Наличие сканов в содержимом раздачи: нет
 
Треклист
1. Shehechianu
2. I'm a Fool
3. Love Duet
4. Link Wray
5. Monologue
6. Duke
7. Hand Over Fist
8. Brand Spankin' New
9. The Kiss
10. Ronley's Solo
11. Real Hot
12. Anthropology Night
13. Honk
14. Doo Wop
15. Color Guaru
16. Portsmouth Stories
17. Plaza St. Louis
18. Duet and Rolling
19. Down
20. In Memorium
 
Лог создания рипа
Exact Audio Copy V1.0 beta 3 from 29. August 2011
Отчёт EAC об извлечении, выполненном 26. ноября 2011, 17:03
Wayne Horvitz / Monologue
Дисковод: ASUS DRW-2014L1T Adapter: 3 ID: 0
Режим чтения : Достоверность
Использование точного потока : Да
Отключение кэша аудио : Да
Использование указателей C2 : Нет
Коррекция смещения при чтении : 6
Способность читать области Lead-in и Lead-out : Нет
Заполнение пропущенных сэмплов тишиной : Да
Удаление блоков с тишиной в начале и конце : Нет
При вычислениях CRC использовались нулевые сэмплы : Да
Интерфейс : Встроенный Win32-интерфейс для Win NT/2000
Выходной формат : Пользовательский кодировщик
Выбранный битрейт : 128 kBit/s
Качество : Высокий
Добавление ID3-тега : Нет
Утилита сжатия : C:\Program Files\Exact Audio Copy\Flac\flac.exe
Дополнительные параметры : -V -8 -T "Date=%year%" -T "Genre=%genre%" %source%
TOC извлечённого CD
Трек | Старт | Длительность | Начальный сектор | Конечный сектор
---------------------------------------------------------------------
1 | 0:00.00 | 3:22.27 | 0 | 15176
2 | 3:22.27 | 3:32.20 | 15177 | 31096
3 | 6:54.47 | 2:28.30 | 31097 | 42226
4 | 9:23.02 | 2:44.08 | 42227 | 54534
5 | 12:07.10 | 2:20.45 | 54535 | 65079
6 | 14:27.55 | 2:52.22 | 65080 | 78001
7 | 17:20.02 | 3:39.08 | 78002 | 94434
8 | 20:59.10 | 3:31.27 | 94435 | 110286
9 | 24:30.37 | 2:03.00 | 110287 | 119511
10 | 26:33.37 | 1:20.53 | 119512 | 125564
11 | 27:54.15 | 2:20.55 | 125565 | 136119
12 | 30:14.70 | 2:36.42 | 136120 | 147861
13 | 32:51.37 | 1:45.00 | 147862 | 155736
14 | 34:36.37 | 3:40.03 | 155737 | 172239
15 | 38:16.40 | 2:10.10 | 172240 | 181999
16 | 40:26.50 | 2:14.37 | 182000 | 192086
17 | 42:41.12 | 2:15.30 | 192087 | 202241
18 | 44:56.42 | 4:37.73 | 202242 | 223089
19 | 49:34.40 | 3:16.60 | 223090 | 237849
20 | 52:51.25 | 2:17.42 | 237850 | 248166
Характеристики диапазона извлечения и сообщения об ошибках
Выбранный диапазон
Имя файла D:\Torrent Downloads\Music\Wayne Horvitz - Monologue\Wayne Horvitz - Monologue.wav
Пиковый уровень 100.0 %
Скорость извлечения 8.8 X
Качество диапазона 100.0 %
CRC теста D347743E
CRC копии D347743E
Копирование... OK
Ошибок не произошло
Конец отчёта
==== Контрольная сумма отчёта 24A03C285EECDCF2D07074F9A81631DEBEEBE9CE2A06E111AD94B4A3DE970EE2 ====
 
Об исполнителе (группе)
Wayne Horvitz, a "defiant cross-breeder of genres", has led the groups The President, Pigpen, Zony Mash, and the Four Plus One Ensemble. He has recorded or performed with John Zorn, Bill Frisell, Elliott Sharp, Danny Barnes, Tucker Martine, Butch Morris, Fred Frith, Julian Priester, Philip Wilson, Michael Shrieve, Carla Bley, Tim Young, Bobby Previte, Skerik, Douglas September and others. He is perhaps most famous for being the keyboardist of the band Naked City. He has produced records for the World Saxophone Quartet, Human Feel, Marty Ehrlich, Fontella Bass, The Living Daylights, Bill Frisell or Eddie Palmieri.
 
Состав
Wayne Horvitz - Keyboards, Programmed By, Sampler, Harmonica
Ed Pias - Percussion
Any questions -> support@pro-jazz.com. По всем вопросам пишите -> support@pro-jazz.com
18:48
197
Нет комментариев. Ваш будет первым!